Поиск

(World Fusion, Cuban Jazz) Jesus Fuentes & Opus Band - Live In Dakar - 2010, FLAC (tracks+.cue), lossless

Jesus Fuentes & Opus Band / Live In Dakar
Жанр: World Fusion, Cuban Jazz
Год издания диска: 2010
Страна: Cuba
Аудиокодек: FLAC (*.flac)
Тип рипа: tracks+.cue
Битрейт аудио: lossless
Продолжительность: 00:58:09
Источник (релизер): october16
Наличие сканов в содержимом раздачи: нет
Треклист:
01. Candela [06:37]
02. Monk [11:03]
03. Saltik [09:35]
04. St. Thomas [06:39]
05. Isla De Suenos [08:07]
06. Cheik It [07:53]
07. Vie Repetee [08:12]
 
Лог создания рипа
Exact Audio Copy V1.0 beta 2 from 29. April 2011
EAC extraction logfile from 6. July 2011, 22:54
Jesus Fuentes & Opus Band / Live In Dakar
Used drive : MATSHITADVD-R UJ-898 Adapter: 1 ID: 0
Read mode : Secure
Utilize accurate stream : Yes
Defeat audio cache : Yes
Make use of C2 pointers : No
Read offset correction : 102
Overread into Lead-In and Lead-Out : No
Fill up missing offset samples with silence : Yes
Delete leading and trailing silent blocks : No
Null samples used in CRC calculations : Yes
Used interface : Native Win32 interface for Win NT & 2000
Gap handling : Appended to previous track
Used output format : User Defined Encoder
Selected bitrate : 768 kBit/s
Quality : High
Add ID3 tag : No
Command line compressor : C:\Program Files (x86)\Exact Audio Copy\Flac\flac.exe
Additional command line options : -8 -V -T "ARTIST=%artist%" -T "TITLE=%title%" -T "ALBUM=%albumtitle%" -T "DATE=%year%" -T "TRACKNUMBER=%tracknr%" -T "TOTALTRACKS=%numtracks%" -T "GENRE=%genre%" -T "ALBUMARTIST=%albumartist%" -T "ALBUM ARTIST=%albumartist%
TOC of the extracted CD
Track | Start | Length | Start sector | End sector
---------------------------------------------------------
1 | 0:00.00 | 6:37.04 | 0 | 29778
2 | 6:37.04 | 11:03.32 | 29779 | 79535
3 | 17:40.36 | 9:35.24 | 79536 | 122684
4 | 27:15.60 | 6:39.46 | 122685 | 152655
5 | 33:55.31 | 8:07.00 | 152656 | 189180
6 | 42:02.31 | 7:53.53 | 189181 | 224708
7 | 49:56.09 | 8:12.73 | 224709 | 261681
Track 1
Filename C:\EAC\Jesus Fuentes & Opus Band - Live In Dakar (2010) [FLAC]\01 - Jesus Fuentes - Candela.wav
Pre-gap length 0:00:02.00
Peak level 100.0 %
Extraction speed 1.4 X
Track quality 99.9 %
Test CRC 23306875
Copy CRC 23306875
Track not present in AccurateRip database
Copy OK
Track 2
Filename C:\EAC\Jesus Fuentes & Opus Band - Live In Dakar (2010) [FLAC]\02 - Franck Habib - Monk.wav
Peak level 98.0 %
Extraction speed 2.0 X
Track quality 100.0 %
Test CRC 28ED5DC0
Copy CRC 28ED5DC0
Track not present in AccurateRip database
Copy OK
Track 3
Filename C:\EAC\Jesus Fuentes & Opus Band - Live In Dakar (2010) [FLAC]\03 - Franck Habib - Saltik.wav
Peak level 99.4 %
Extraction speed 2.0 X
Track quality 99.9 %
Test CRC C3319706
Copy CRC C3319706
Track not present in AccurateRip database
Copy OK
Track 4
Filename C:\EAC\Jesus Fuentes & Opus Band - Live In Dakar (2010) [FLAC]\04 - Sonny Rollins - St. Thomas.wav
Peak level 100.0 %
Extraction speed 2.2 X
Track quality 100.0 %
Test CRC 1F34DE57
Copy CRC 1F34DE57
Track not present in AccurateRip database
Copy OK
Track 5
Filename C:\EAC\Jesus Fuentes & Opus Band - Live In Dakar (2010) [FLAC]\05 - Jesus Fuentes - Isla De Suenos.wav
Peak level 99.6 %
Extraction speed 2.1 X
Track quality 99.9 %
Test CRC 19E6D9C9
Copy CRC 19E6D9C9
Track not present in AccurateRip database
Copy OK
Track 6
Filename C:\EAC\Jesus Fuentes & Opus Band - Live In Dakar (2010) [FLAC]\06 - Franck Habib - Cheik It.wav
Peak level 98.9 %
Extraction speed 2.4 X
Track quality 100.0 %
Test CRC 1D9CFCC7
Copy CRC 1D9CFCC7
Track not present in AccurateRip database
Copy OK
Track 7
Filename C:\EAC\Jesus Fuentes & Opus Band - Live In Dakar (2010) [FLAC]\07 - Franck Habib - Vie Repetee.wav
Peak level 100.0 %
Extraction speed 2.4 X
Track quality 100.0 %
Test CRC 2EF6EF6F
Copy CRC 2EF6EF6F
Track not present in AccurateRip database
Copy OK
None of the tracks are present in the AccurateRip database
No errors occurred
End of status report
==== Log checksum 9CFA672287F1ACD0D33C846EF9F2A645F25EF91209E023F3CF0747FC12BF3F05 ====
 
Содержание индексной карты (.CUE)
REM GENRE "Latin Jazz"
REM DATE 2010
REM DISCID 660DA107
REM COMMENT "ExactAudioCopy v1.0b2"
PERFORMER "Jesus Fuentes & Opus Band"
TITLE "Live In Dakar"
FILE "01 - Jesus Fuentes - Candela.wav" WAVE
TRACK 01 AUDIO
TITLE "Candela"
PERFORMER "Jesus Fuentes"
FLAGS DCP
INDEX 01 00:00:00
FILE "02 - Franck Habib - Monk.wav" WAVE
TRACK 02 AUDIO
TITLE "Monk"
PERFORMER "Franck Habib"
FLAGS DCP
INDEX 01 00:00:00
FILE "03 - Franck Habib - Saltik.wav" WAVE
TRACK 03 AUDIO
TITLE "Saltik"
PERFORMER "Franck Habib"
FLAGS DCP
INDEX 01 00:00:00
FILE "04 - Sonny Rollins - St. Thomas.wav" WAVE
TRACK 04 AUDIO
TITLE "St. Thomas"
PERFORMER "Sonny Rollins"
FLAGS DCP
INDEX 01 00:00:00
FILE "05 - Jesus Fuentes - Isla De Suenos.wav" WAVE
TRACK 05 AUDIO
TITLE "Isla De Suenos"
PERFORMER "Jesus Fuentes"
FLAGS DCP
INDEX 01 00:00:00
FILE "06 - Franck Habib - Cheik It.wav" WAVE
TRACK 06 AUDIO
TITLE "Cheik It"
PERFORMER "Franck Habib"
FLAGS DCP
INDEX 01 00:00:00
FILE "07 - Franck Habib - Vie Repetee.wav" WAVE
TRACK 07 AUDIO
TITLE "Vie Repetee"
PERFORMER "Franck Habib"
FLAGS DCP
INDEX 01 00:00:00
23:57
344
Нет комментариев. Ваш будет первым!