Поиск

(Contemporary Jazz) Omar Sosa - Calma - 2011, FLAC (image+.cue), lossless

Треклист:
Omar Sosa / Calma
Жанр: Contemporary Jazz
Год издания диска: 2011
Издатель (лейбл): Ota Records
Аудиокодек: FLAC (*.flac)
Тип рипа: image+.cue
Битрейт аудио: lossless
Продолжительность: 51:03
Источник (релизер): bastun
Наличие сканов в содержимом раздачи: да
Треклист:
01. Sunrise 3:51
02. Absence 4:02
03. Walking Together 3:39
04. Esperanza 5:24
05. Innocence 3:28
06. Oasis 3:13
07. Aguas 3:41
08. Looking Within 5:05
09. Dance of Reflection 3:47
10. Autumn Flowers 3:44
11. Reposo 3:34
12. Madre 3:24
13. Sunset 4:05
Прозрачный, лёгкий, медитативный, атмосферный альбом...
 
Лог создания рипа
Exact Audio Copy V0.99 prebeta 4 from 23. January 2008
EAC extraction logfile from 28. August 2011, 5:28
Omar Sosa / calma
Used drive : TSSTcorpDVD+-RW TS-L632H Adapter: 0 ID: 0
Read mode : Secure
Utilize accurate stream : Yes
Defeat audio cache : Yes
Make use of C2 pointers : No
Read offset correction : 6
Overread into Lead-In and Lead-Out : No
Fill up missing offset samples with silence : Yes
Delete leading and trailing silent blocks : No
Null samples used in CRC calculations : Yes
Used interface : Installed external ASPI interface
Used output format : User Defined Encoder
Selected bitrate : 768 kBit/s
Quality : High
Add ID3 tag : No
Command line compressor : C:\Program Files\Exact Audio Copy\Flac\flac.exe
Additional command line options : -8 -V -T "ARTIST=%a" -T "TITLE=%t" -T "ALBUM=%g" -T "DATE=%y" -T "TRACKNUMBER=%n" -T "TOTALTRACKS=%x" -T "GENRE=%m" -T "ALBUMARTIST=%v" -T "ALBUM ARTIST=%v" -T "COMMENT=EAC Secure Mode, Test & Copy, AccurateRip, FLAC -8" %s
TOC of the extracted CD
Track | Start | Length | Start sector | End sector
---------------------------------------------------------
1 | 0:00.00 | 3:51.58 | 0 | 17382
2 | 3:51.58 | 4:02.21 | 17383 | 35553
3 | 7:54.04 | 3:39.38 | 35554 | 52016
4 | 11:33.42 | 5:24.14 | 52017 | 76330
5 | 16:57.56 | 3:28.17 | 76331 | 91947
6 | 20:25.73 | 3:13.67 | 91948 | 106489
7 | 23:39.65 | 3:41.65 | 106490 | 123129
8 | 27:21.55 | 5:05.14 | 123130 | 146018
9 | 32:26.69 | 3:47.08 | 146019 | 163051
10 | 36:14.02 | 3:44.08 | 163052 | 179859
11 | 39:58.10 | 3:34.26 | 179860 | 195935
12 | 43:32.36 | 3:24.25 | 195936 | 211260
13 | 46:56.61 | 4:05.21 | 211261 | 229656
Range status and errors
Selected range
Filename H:\Rips\Omar Sosa - calma.wav
Peak level 98.7 %
Range quality 100.0 %
Test CRC 88A5DBDE
Copy CRC 88A5DBDE
Copy OK
No errors occurred
AccurateRip summary
Track 1 cannot be verified as accurate (confidence 2) [7F35D9D9], AccurateRip returned [8FD71AB3]
Track 2 cannot be verified as accurate (confidence 2) [B6E9AEEA], AccurateRip returned [8CF9597D]
Track 3 cannot be verified as accurate (confidence 2) [CC7DF699], AccurateRip returned [AF2A8F2E]
Track 4 cannot be verified as accurate (confidence 2) [C31CEFFF], AccurateRip returned [595F3112]
Track 5 cannot be verified as accurate (confidence 2) [04075AE6], AccurateRip returned [30A36317]
Track 6 cannot be verified as accurate (confidence 2) [8A447D20], AccurateRip returned [8E78E6A4]
Track 7 cannot be verified as accurate (confidence 2) [5B08097B], AccurateRip returned [FEA56BF9]
Track 8 cannot be verified as accurate (confidence 2) [4E006F94], AccurateRip returned [C9FA76A7]
Track 9 cannot be verified as accurate (confidence 2) [8A8B3731], AccurateRip returned [34CADF67]
Track 10 cannot be verified as accurate (confidence 2) [01437A80], AccurateRip returned [1C21F880]
Track 11 cannot be verified as accurate (confidence 2) [42A48EAD], AccurateRip returned [92A0C82C]
Track 12 cannot be verified as accurate (confidence 2) [2550BD8B], AccurateRip returned [06E54302]
Track 13 cannot be verified as accurate (confidence 2) [2E9267D4], AccurateRip returned [E8FBD475]
No tracks could be verified as accurate
You may have a different pressing from the one(s) in the database
End of status report
 
Содержание индексной карты (.CUE)
REM GENRE Jazz
REM DATE 2011
REM DISCID A80BF60D
REM COMMENT "ExactAudioCopy v0.99pb4"
PERFORMER "Omar Sosa"
TITLE "calma"
FILE "Omar Sosa - calma.flac" WAVE
TRACK 01 AUDIO
TITLE "Sunrise"
PERFORMER "Omar Sosa"
INDEX 01 00:00:00
TRACK 02 AUDIO
TITLE "Absence"
PERFORMER "Omar Sosa"
INDEX 01 03:51:58
TRACK 03 AUDIO
TITLE "Walking together"
PERFORMER "Omar Sosa"
INDEX 01 07:54:04
TRACK 04 AUDIO
TITLE "Esperanza"
PERFORMER "Omar Sosa"
INDEX 01 11:33:42
TRACK 05 AUDIO
TITLE "Innocence"
PERFORMER "Omar Sosa"
INDEX 01 16:57:56
TRACK 06 AUDIO
TITLE "Oasis"
PERFORMER "Omar Sosa"
INDEX 01 20:25:73
TRACK 07 AUDIO
TITLE "Aguas"
PERFORMER "Omar Sosa"
INDEX 01 23:39:65
TRACK 08 AUDIO
TITLE "Looking within"
PERFORMER "Omar Sosa"
INDEX 01 27:21:55
TRACK 09 AUDIO
TITLE "Dance of reflection"
PERFORMER "Omar Sosa"
INDEX 01 32:26:69
TRACK 10 AUDIO
TITLE "Autumn flowers"
PERFORMER "Omar Sosa"
INDEX 01 36:14:02
TRACK 11 AUDIO
TITLE "Reposo"
PERFORMER "Omar Sosa"
INDEX 01 39:58:10
TRACK 12 AUDIO
TITLE "Madre"
PERFORMER "Omar Sosa"
INDEX 01 43:32:36
TRACK 13 AUDIO
TITLE "Sunset"
PERFORMER "Omar Sosa"
INDEX 01 46:56:61
 
Лог проверки качества
AUDIOCHECKER v2.0 beta (build 457) - by Dester - opdester@freemail.hu
~~~~~~~~~~~~~~~~~~~~~~~~~~~~~~~~~~
-=== DO NOT EDIT THIS FILE! ===-
Path: ...\Omar Sosa - Calma (2011) [FLAC]
1 -=- Omar Sosa - calma.flac -=- CDDA (100%)
84044804
 
Об альбоме (сборнике)
Calma is Omar Sosa’s fifth solo piano recording, a work of singular artistry, featuring Omar’s unique and original approach to the genre. The CD is comprised of 13 solo piano improvisations, fusing stylistic elements of jazz, classical new music, ambient, and electronica. As the title implies, the overall feeling is relaxed and introspective, without any attempt to impress technically. Rather, the intent is to evoke a mood of reflection and contemplation.
As Omar describes: “Each song is an inspiration for the next, and improvisation is the basis of the musical expression. I wanted to play from beginning to end without thinking – just feeling where each note would take me, following the voice of my soul. It’s possible that silence, yearning, hope, optimism, and sadness all travel hand-in-hand in many of the songs”.
The recording features a rarely heard combination of acoustic piano, Fender Rhodes electric piano, and various electronic effects and sampled sounds. All of these instruments were recorded live together in the studio, without overdubs – the artist interacting spontaneously, in real-time, with the various sonic elements.
Omar’s unorthodox harmonic sensibilities are evident throughout Calma. We hear surprising harmonic turns, with sonorities blending and resolving in unpredictable ways. And Omar’s subtle and integral use of the electronic elements lends a layer of sonic richness and depth to many of the tracks.
Rhythmically, the feeling of the CD is unhurried and meditative. Sensations of floating and suspension of time prevail. Melodically, the thematic material on Calma is quiet and restrained. We can imagine the melodic sensibilities of Erik Satie meeting those of Pierre Boulez.
Calma was recorded at Systems Two in Brooklyn, New York on October 14, 2009
 
Состав
Omar Sosa - piano, grand piano, sampler
Приятных впечатлений!
Download available for power users only.
22:58
395
Нет комментариев. Ваш будет первым!