Поиск

(World Fusion, Cuban Jazz) AfroCubism - AfroCubism - 2010, FLAC (tracks+.cue) lossless

Треклист:
AfroCubism / AfroCubism
Жанр: World Fusion, Cuban Jazz
Год издания диска: 2010
Страна: Cuba, Mali
Аудио кодек: FLAC (*.flac)
Тип рипа: tracks+.cue
Битрейт аудио: lossless
Продолжительность: 0:58:40
Источник (релизер): pastafaricubensis
Наличие сканов в содержимом раздачи: нет
Треклист:
01. Mali Cuba (5:38)
02. Al vaivén de mi carreta (5:00)
03. Karamo (6:56)
04. Djelimady rumba (3:11)
05. La Culebra (3:34)
06. Jarabi (5:57)
07. Eliades tumbao 27 (1:17)
08. Dakan (2:15)
09. Nima Diyala (3:36)
10. A la luna yo me voy (4:00)
11. Mariama (4:00)
12. Para los pinares se va montoro (4:14)
13. Benséma (4:58)
14. Guantanamera (4:05)
 
EAC log
Exact Audio Copy V0.99 prebeta 5 from 4. May 2009
EAC extraction logfile from 13. October 2010, 14:25
AfroCubism / AfroCubism
Used drive : TSSTcorpCDDVDW TS-H653N Adapter: 2 ID: 2
Read mode : Secure
Utilize accurate stream : Yes
Defeat audio cache : Yes
Make use of C2 pointers : No
Read offset correction : 6
Overread into Lead-In and Lead-Out : No
Fill up missing offset samples with silence : Yes
Delete leading and trailing silent blocks : No
Null samples used in CRC calculations : Yes
Used interface : Native Win32 interface for Win NT & 2000
Gap handling : Appended to previous track
Used output format : User Defined Encoder
Selected bitrate : 1024 kBit/s
Quality : High
Add ID3 tag : No
Command line compressor : C:\Program Files\FLAC -\flac.exe
Additional command line options : -5 -V -T "artist=%a" -T "title=%t" -T "album=%g" -T "date=%y" -T "tracknumber=%n" -T "genre=%m" -T comment="shared by pastafari cubensis" %s
TOC of the extracted CD
Track | Start | Length | Start sector | End sector
---------------------------------------------------------
1 | 0:00.00 | 5:38.29 | 0 | 25378
2 | 5:38.29 | 5:00.11 | 25379 | 47889
3 | 10:38.40 | 6:55.52 | 47890 | 79066
4 | 17:34.17 | 3:10.74 | 79067 | 93390
5 | 20:45.16 | 3:33.68 | 93391 | 109433
6 | 24:19.09 | 5:57.31 | 109434 | 136239
7 | 30:16.40 | 1:16.72 | 136240 | 142011
8 | 31:33.37 | 2:14.46 | 142012 | 152107
9 | 33:48.08 | 3:36.28 | 152108 | 168335
10 | 37:24.36 | 3:59.68 | 168336 | 186328
11 | 41:24.29 | 4:00.05 | 186329 | 204333
12 | 45:24.34 | 4:13.42 | 204334 | 223350
13 | 49:38.01 | 4:57.51 | 223351 | 245676
14 | 54:35.52 | 4:05.17 | 245677 | 264068
Track 1
Filename C:\pastafari\AfroCubism - 2010 - AfroCubism [FLAC]\01 - Mali Cuba.wav
Pre-gap length 0:00:02.00
Peak level 89.0 %
Track quality 99.9 %
Test CRC 1B4B0B2D
Copy CRC 1B4B0B2D
Copy OK
Track 2
Filename C:\pastafari\AfroCubism - 2010 - AfroCubism [FLAC]\02 - Al vaivйn de mi carreta.wav
Pre-gap length 0:00:03.25
Peak level 89.0 %
Track quality 100.0 %
Test CRC 246E218A
Copy CRC 246E218A
Copy OK
Track 3
Filename C:\pastafari\AfroCubism - 2010 - AfroCubism [FLAC]\03 - Karamo.wav
Pre-gap length 0:00:04.46
Peak level 89.0 %
Track quality 100.0 %
Test CRC 3C4CBADB
Copy CRC 3C4CBADB
Copy OK
Track 4
Filename C:\pastafari\AfroCubism - 2010 - AfroCubism [FLAC]\04 - Djelimady rumba.wav
Pre-gap length 0:00:04.14
Peak level 89.0 %
Track quality 100.0 %
Test CRC 75564B04
Copy CRC 75564B04
Copy OK
Track 5
Filename C:\pastafari\AfroCubism - 2010 - AfroCubism [FLAC]\05 - La Culebra.wav
Pre-gap length 0:00:02.85
Peak level 89.0 %
Track quality 100.0 %
Test CRC 4B3C89B8
Copy CRC 4B3C89B8
Copy OK
Track 6
Filename C:\pastafari\AfroCubism - 2010 - AfroCubism [FLAC]\06 - Jarabi.wav
Pre-gap length 0:00:03.86
Peak level 89.0 %
Track quality 100.0 %
Test CRC 94E0FDB3
Copy CRC 94E0FDB3
Copy OK
Track 7
Filename C:\pastafari\AfroCubism - 2010 - AfroCubism [FLAC]\07 - Eliades tumbao 27.wav
Pre-gap length 0:00:03.42
Peak level 67.2 %
Track quality 100.0 %
Test CRC 139EE019
Copy CRC 139EE019
Copy OK
Track 8
Filename C:\pastafari\AfroCubism - 2010 - AfroCubism [FLAC]\08 - Dakan.wav
Pre-gap length 0:00:04.12
Peak level 89.0 %
Track quality 100.0 %
Test CRC 7039AC8B
Copy CRC 7039AC8B
Copy OK
Track 9
Filename C:\pastafari\AfroCubism - 2010 - AfroCubism [FLAC]\09 - Nima Diyala.wav
Pre-gap length 0:00:01.68
Peak level 89.0 %
Track quality 100.0 %
Test CRC 9A1E7E7A
Copy CRC 9A1E7E7A
Copy OK
Track 10
Filename C:\pastafari\AfroCubism - 2010 - AfroCubism [FLAC]\10 - A la luna yo me voy.wav
Pre-gap length 0:00:02.73
Peak level 89.0 %
Track quality 100.0 %
Test CRC 8B10A290
Copy CRC 8B10A290
Copy OK
Track 11
Filename C:\pastafari\AfroCubism - 2010 - AfroCubism [FLAC]\11 - Mariama.wav
Pre-gap length 0:00:02.42
Peak level 89.0 %
Track quality 99.9 %
Test CRC 8060A6D7
Copy CRC 8060A6D7
Copy OK
Track 12
Filename C:\pastafari\AfroCubism - 2010 - AfroCubism [FLAC]\12 - Para los pinares se va montoro.wav
Pre-gap length 0:00:01.62
Peak level 89.0 %
Track quality 100.0 %
Test CRC E4E20A76
Copy CRC E4E20A76
Copy OK
Track 13
Filename C:\pastafari\AfroCubism - 2010 - AfroCubism [FLAC]\13 - Bensйma.wav
Pre-gap length 0:00:02.38
Peak level 89.0 %
Track quality 100.0 %
Test CRC FFE78A1F
Copy CRC FFE78A1F
Copy OK
Track 14
Filename C:\pastafari\AfroCubism - 2010 - AfroCubism [FLAC]\14 - Guantanamera.wav
Pre-gap length 0:00:03.30
Peak level 89.0 %
Track quality 100.0 %
Test CRC 21D62610
Copy CRC 21D62610
Copy OK
No errors occurred
End of status report
 
auCDtect's log
-----------------------
DON'T MODIFY THIS FILE
-----------------------
PERFORMER: auCDtect Task Manager, ver. 1.5.1RC3 build 1.5.1.4
Copyright (c) 2008-2010 y-soft. All rights reserved
http://y-soft.org
ANALYZER: auCDtect: CD records authenticity detector, version 0.8.2
Copyright (c) 2004 Oleg Berngardt. All rights reserved.
Copyright (c) 2004 Alexander Djourik. All rights reserved.
FILE: 14 - Guantanamera.flac
Size: 20490636 Hash: A58E6AA708E40C8BEA30906E649A7C4A Accuracy: -m0
Conclusion: CDDA 99%
Signature: 77D935027E93EB6D4D87598739CC11C3B3541744
FILE: 13 - Benséma.flac
Size: 31543168 Hash: 350C214C39266392B6B4FF432D042915 Accuracy: -m0
Conclusion: CDDA 100%
Signature: 5EEE2858BCFCE7251D4E0B057D3F070A6827D641
FILE: 12 - Para los pinares se va montoro.flac
Size: 26117650 Hash: CF171DD9E0089DE5556391F1C5A279AA Accuracy: -m0
Conclusion: CDDA 100%
Signature: 445E0CED3614A42A38CA3002F077972611637830
FILE: 11 - Mariama.flac
Size: 23285165 Hash: 85698719A6220DF8A7FF8B033525796B Accuracy: -m0
Conclusion: CDDA 100%
Signature: 225BFE63B28E0527E97F4879C087A15D11FA9F91
FILE: 10 - A la luna yo me voy.flac
Size: 25502482 Hash: 362D1913F878E235A40C1CFC9231654D Accuracy: -m0
Conclusion: CDDA 100%
Signature: 2656D46C749CF88CE1BFD88C5E086082B5032F47
FILE: 09 - Nima Diyala.flac
Size: 19987609 Hash: 9B443BB965FFD11129D21ED739A15EF8 Accuracy: -m0
Conclusion: CDDA 100%
Signature: 3FDFA2952B22FF49848FB1C54AE0A749B17BB76C
FILE: 08 - Dakan.flac
Size: 13115079 Hash: 26BC280C4C3CB5519280F679E124B932 Accuracy: -m0
Conclusion: CDDA 100%
Signature: AECF9389121FEEDF03A16083502F1255F36E5416
FILE: 07 - Eliades tumbao 27.flac
Size: 6036682 Hash: 7A5DA1CE864B9C4AECF626DD8EFB9050 Accuracy: -m0
Conclusion: CDDA 100%
Signature: 64CA7535B8F29AD70467D05452FF3F01C3BDAF48
FILE: 06 - Jarabi.flac
Size: 37407554 Hash: 89AA0139438C6C0B4E0F924BCE40C778 Accuracy: -m0
Conclusion: CDDA 100%
Signature: 6BB3095239F44B23FCDB34CB5ECFB52159CB1105
FILE: 05 - La Culebra.flac
Size: 21121956 Hash: 1ADBD5C72ECF6AA5EDB678A6421C662F Accuracy: -m0
Conclusion: CDDA 99%
Signature: 614DAE1D7302D480DF54FE7123817DA3FCA00CF0
FILE: 04 - Djelimady rumba.flac
Size: 18106701 Hash: A74302975C8F8BA5043D446695D2705D Accuracy: -m0
Conclusion: CDDA 100%
Signature: E4336E73DCCF1B050A4D98C3CDAFFB702C8931D0
FILE: 03 - Karamo.flac
Size: 38968451 Hash: 07A1523528D6B1171D86034F650DC7C3 Accuracy: -m0
Conclusion: CDDA 100%
Signature: 801E0532F3685254A6C88F9F514E3E9E07220037
FILE: 02 - Al vaivén de mi carreta.flac
Size: 33137730 Hash: 3B16A1A992F3D285BC6BD6A3BCC2A42E Accuracy: -m0
Conclusion: CDDA 100%
Signature: E290DC14E44CC2E896A4BBFFBBE94A6271D8E333
FILE: 01 - Mali Cuba.flac
Size: 33604107 Hash: 254A89D942C4B70087969BACBE73E7B5 Accuracy: -m0
Conclusion: CDDA 100%
Signature: 2AF67D38FC0E1F8F116F3049CFAFEB59B5C3B790
 
.cue (fixed)
REM GENRE World
REM DATE 2010
REM DISCID C00DC00E
REM COMMENT "ExactAudioCopy v0.99pb5"
PERFORMER "AfroCubism"
TITLE "AfroCubism"
FILE "01 - Mali Cuba.wav" WAVE
TRACK 01 AUDIO
TITLE "Mali Cuba"
PERFORMER "AfroCubism"
FLAGS DCP
INDEX 01 00:00:00
TRACK 02 AUDIO
TITLE "Al vaivйn de mi carreta"
PERFORMER "AfroCubism"
FLAGS DCP
INDEX 00 05:35:10
FILE "02 - Al vaiven de mi carreta.wav" WAVE
INDEX 01 00:00:00
TRACK 03 AUDIO
TITLE "Karamo"
PERFORMER "AfroCubism"
FLAGS DCP
INDEX 00 04:55:51
FILE "03 - Karamo.wav" WAVE
INDEX 01 00:00:00
TRACK 04 AUDIO
TITLE "Djelimady rumba"
PERFORMER "AfroCubism"
FLAGS DCP
INDEX 00 06:51:41
FILE "04 - Djelimady rumba.wav" WAVE
INDEX 01 00:00:00
TRACK 05 AUDIO
TITLE "La Culebra"
PERFORMER "AfroCubism"
FLAGS DCP
INDEX 00 03:08:10
FILE "05 - La Culebra.wav" WAVE
INDEX 01 00:00:00
TRACK 06 AUDIO
TITLE "Jarabi"
PERFORMER "AfroCubism"
FLAGS DCP
INDEX 00 03:30:03
FILE "06 - Jarabi.wav" WAVE
INDEX 01 00:00:00
TRACK 07 AUDIO
TITLE "Eliades tumbao 27"
PERFORMER "AfroCubism"
FLAGS DCP
INDEX 00 05:53:74
FILE "07 - Eliades tumbao 27.wav" WAVE
INDEX 01 00:00:00
TRACK 08 AUDIO
TITLE "Dakan"
PERFORMER "AfroCubism"
FLAGS DCP
INDEX 00 01:12:63
FILE "08 - Dakan.wav" WAVE
INDEX 01 00:00:00
TRACK 09 AUDIO
TITLE "Nima Diyala"
PERFORMER "AfroCubism"
FLAGS DCP
INDEX 00 02:12:70
FILE "09 - Nima Diyala.wav" WAVE
INDEX 01 00:00:00
TRACK 10 AUDIO
TITLE "A la luna yo me voy"
PERFORMER "AfroCubism"
FLAGS DCP
INDEX 00 03:33:48
FILE "10 - A la luna yo me voy.wav" WAVE
INDEX 01 00:00:00
TRACK 11 AUDIO
TITLE "Mariama"
PERFORMER "AfroCubism"
FLAGS DCP
INDEX 00 03:57:36
FILE "11 - Mariama.wav" WAVE
INDEX 01 00:00:00
TRACK 12 AUDIO
TITLE "Para los pinares se va montoro"
PERFORMER "AfroCubism"
FLAGS DCP
INDEX 00 03:58:33
FILE "12 - Para los pinares se va montoro.wav" WAVE
INDEX 01 00:00:00
TRACK 13 AUDIO
TITLE "Bensйma"
PERFORMER "AfroCubism"
FLAGS DCP
INDEX 00 04:11:13
FILE "13 - Bensema.wav" WAVE
INDEX 01 00:00:00
TRACK 14 AUDIO
TITLE "Guantanamera"
PERFORMER "AfroCubism"
FLAGS DCP
INDEX 00 04:54:28
FILE "14 - Guantanamera.wav" WAVE
INDEX 01 00:00:00
 
Review by Amazon
The great world music album that-never-was has finally been realized. The project that became the Buena Vista Social Club has borne its own extraordinary fruit.
In 1996, a group of Mali's finest musicians were due to fly into Havana for a speculative collaboration with some of Cuba's most brilliant singers and instrumentalists. For reasons that have never been made clear, the Malians never arrived. A very different album was recorded: 'The Buena Vista Social Club'. The rest, as they say, is multi-million selling history.
But what about that original album? What riches might have been revealed in the interaction of virtuosi from one of Africa's most musically rich territories, and from Cuba whose music has origins in Africa, and has been hugely influential on the mother continent?
Now we have the opportunity to find out. World Circuit Records' Nick Gold, the man behind the 1996 venture, finally brought the original invitees together with a stellar line-up of additional talent at a series of inspirational sessions and the great lost Afro-Cuban album will be released fourteen years after originally planned.
Fronting the Cuban team is the cowboy-hatted singer and guitarist Eliades Ochoa, singer of the great Buena Vista theme 'Chan Chan.' The two original Malian invitees are multi award-winning ngoni lute master Bassekou Kouyate and the extraordinary Rail Band guitarist Djelimady Tounkara, both universally agreed to be among the world,s great instrumentalists. Joining them are Eliades' Grupo Patria, amongst Cuba's longest running and most revered bands, the mercurial kora genius Toumani Diabaté, legendary Malian griot singer Kasse Mady Diabaté and the innovatory balafon player Lassana Diabaté.
'It was as though the musicians had been holding back their ideas and energy for that moment,' says Gold, who produced the album, with the great Buena Vista engineer Jerry Boys at his side. 'After we'd waited so long, it all came together remarkably easily and spontaneously. The group had never played together before but the music just poured out and it continued to flow over the next few days.' Seventeen songs were recorded in five days, with all the musicians playing together 'live' in one large room. A second session was convened some months later and produced a further nine songs.
The title 'AfroCubism' is advised. This is an album that throws the elements of Cuban and African music in the air and lets them fall in entrancing new patterns.
18:41
409
Нет комментариев. Ваш будет первым!