Поиск

(World Fusion / Contemporary Jazz / ACT Music) Joachim Kuhn, Majid Bekkas, Ramon Lopez - Chalaba - 2011, FLAC (tracks+.cue) lossless

(World Fusion / Contemporary Jazz / ACT Music) Joachim Kuhn, Majid Bekkas, Ramon Lopez - Chalaba - 2011, FLAC (tracks+.cue) lossless
Издатель (лейбл):
Треклист:
Joachim Kühn, Majid Bekkas, Ramon Lopez - Chalaba
Жанр: World Fusion / Contemporary Jazz
Страна-производитель диска: Germany
Год издания диска: 2011
Издатель (лейбл): ACT Music
Номер по каталогу: ACT 9502-2 / Categories: World Jazz
Аудио кодек: FLAC (*.flac)
Тип рипа: tracks+.cue
Битрейт аудио: lossless
Продолжительность: 00:54:23
Источник (релизер): собственный рип с оригинального Audio CD
Наличие сканов в содержимом раздачи: да
Треклист:
1. Enjoy (Joachim Kühn / Majid Bekkas) (05:12)
2. Asmaa (Majid Bekkas) (07:02)
3. Back To Normal (Joachim Kühn) (04:37)
4. Play Golf In The Fresh Air (Joachim Kühn) (04:41)
5. Chalaba (trad. arr. by Majid Bekkas) (09:54)
6. Soon In June (Joachim Kühn / Majid Bekkas / Lopez, Ramon) (06:52)
7. Hamdouchia (Majid Bekkas) (05:14)
8. The Second Egg (Joachim Kühn) (05:41)
9. Mimoun Saadiyamou (trad. arr. by Majid Bekkas) (04:54)
Доп. информация:
Musicians:
JOACHIM KÜHN - piano, alto sax
MAJID BEKKAS - vocals, guembri, oud
RAMON LOPEZ - drums, tabla, perc
Recorded and mixed by Walther Quintus at CMP studio, Zerkall, Germany, July 12 - 16, 2010
Cover art: "Peregrine Falcon Over King Snake" (2008) © by Philip Taaffe
Release Date Germany: 2011-02-25 © 2011 ACT Music
JOACHIM KÜHN, MAJID BEKKAS, RAMON LOPEZ - Chalaba actmusic.com
JOACHIM KÜHN, MAJID BEKKAS, RAMON LOPEZ - Chalaba allaboutjazz.com
JOACHIM KÜHN from Wikipedia, the free encyclopedia
MAJID BEKKAS orientaljazz.com
RAMON LOPEZ Official Site
 
... text ...
"Joachim Kühn is a jewel of European jazz. A great performance and food for thought as well" - Jazzwise
 
... back ...
 
... photo ...
 
Product Info
“When do you know whether you have a band that works? You can’t plan something like that,” ponders Joachim Kühn. The 66-year-old is a veteran from a tradition of conscious avant-garde music, a partner of greats including Michel Portal, Archie Shepp, Ornette Coleman, Rabih Abou-Khalil, Stan Getz, Michael Brecker and Michael Wollny, and one of the few international German jazz stars. But he had no idea what his acquaintance with Majid Bekkas, the Moroccan guembri virtuoso and driving force behind the Moroccan music scene, would lead to when they first met in 2003. This initial meeting soon led to a deep friendship and musical partnership which proved inspirational for everyone involved - this includes Spanish drummer and percussionist Ramon Lopez, who joined Bekkas and Kühn later on. In 2007 they released their first joint album Kalimba (ACT 9456-2) which was followed two years later by Out Of The Desert (ACT 9475-2) featuring Gnawa musicians from Morocco and Benin. Both albums won the German Record Critics Award, and now, two years later, the trio proudly announce the release of their third: Chalaba.
Kühn, Bekkas and Lopez are already a dream team, a magical trio that have developed a totally organic and harmoniously evolving world music. A trio which, despite the greatest degree of freedom of the individuals, manages to find a compelling form with which to conjure up increasingly resonant songs. “That’s why we continue playing together because the music develops in such a unique way, always becoming better,” says Kühn. “The band has priority, for all three of us.”
Similar to Kalimba, Chalaba was also recorded deep in the heart of the Eifel region, in the studio belonging to sound engineer Walter Quintus, who Kühn trusts implicitly. “He is one of the best in the world, there’s no doubt about it. He has also been my partner for 40 years and we’re a great team.” For one week they all lived, ate and played together, and this relaxed yet concentrated working atmosphere can be heard on Chalaba.
This album shines in all colours. To begin with, “Enjoy” is a future hit, created by Kühn’s full and rapid piano playing, Bekkas’ memorable guttural vocals and the powerful drive of Lopez’s drums. Many pop songs could learn a thing or two from its catchy melody, underlain by a bouncy reggae-style rhythm. This is followed by the wonderfully lyrical and easy-going “Asmaa”, enriched with tabla and flamenco elements, which Bekkas wrote for his daughter of the same name.
Kühn proves himself to be a great master of chromaticism and a brilliant refiner of his own developed harmony model (Diminished Augmented System) in “Back to Normal”. The mystery that encompasses Kühn’s music is at the centre of “Play Golf In The Fresh Air”, an up-tempo track which almost sounds like thriller cinema soundtrack. Kühn didn’t even want to explain the title; “It should remain a secret of the band. I can only say that none of us play golf, we’re still too young for that.”
The title track “Chalaba” is the first of two traditional Moroccan pieces that Bekkas arranged and prepared as a basis for improvisation. The piece develops from a meditative guembri solo to an increasingly rousing musical lament and is a perfect example of how creatively and intelligently this trio works with all kinds of musical templates. Bekkas’ “Hamdouchia” is a rhythmic wild camel ride through the desert and, similar to “Mimoun Saadiyamou”, evidence of Kühns’s assumption that, “Blues was not discovered in America but comes from Morocco and Mali.”
On “Soon In June” Kühn reaches for his second instrument, the alto saxophone, which he always has with him on his travels to Africa - “Because a grand piano isn’t always available.” “The Second Egg” came about during breakfast on a dull flight and is Kühn’s virtuosic contribution on piano, incorporating historical musical ideas from classic to free jazz, and highly accomplished group improvisation.
“No-one needs to disguise themselves in this band,” summarises Kühn. “I feel freer here when improvising than when I am playing in a conventional jazz group even though there isn’t usually so much improvisation in Gnawa music, although it may sound like it. I get the most out of what happens in the moment. In the future I would like to study Arabic and African music even more intensely; it is so rich that it is almost a job for life.” Working brilliantly despite being unplanned, listeners can expect a great deal more from Joachim Kühn, Ramon Lopez and Majid Bekkas...
 
EAC extraction logfile from 12. March 2011, 18:51
Exact Audio Copy V0.99 prebeta 4 from 23. January 2008
EAC extraction logfile from 12. March 2011, 18:51
Joachim Kuhn, Majid Bekkas, Ramon Lopez / Chalaba
Used drive : Optiarc DVD RW AD-7260S Adapter: 2 ID: 0
Read mode : Secure
Utilize accurate stream : Yes
Defeat audio cache : Yes
Make use of C2 pointers : No
Read offset correction : 48
Overread into Lead-In and Lead-Out : No
Fill up missing offset samples with silence : Yes
Delete leading and trailing silent blocks : No
Null samples used in CRC calculations : Yes
Used interface : Installed external ASPI interface
Gap handling : Appended to previous track
Used output format : User Defined Encoder
Selected bitrate : 128 kBit/s
Quality : High
Add ID3 tag : No
Command line compressor : D:\Program Files\Exact Audio Copy\Flac\flac.exe
Additional command line options : -8 -V -T "ARTIST=%a" -T "TITLE=%t" -T "ALBUM=%g" -T "DATE=%y" -T "TRACKNUMBER=%n" -T "GENRE=%m" -T "COMMENT=EAC FLAC -8" %s
TOC of the extracted CD
Track | Start | Length | Start sector | End sector
---------------------------------------------------------
1 | 0:00.00 | 5:13.55 | 0 | 23529
2 | 5:13.55 | 7:04.44 | 23530 | 55373
3 | 12:18.24 | 4:37.54 | 55374 | 76202
4 | 16:56.03 | 4:42.64 | 76203 | 97416
5 | 21:38.67 | 9:55.50 | 97417 | 142091
6 | 31:34.42 | 6:54.02 | 142092 | 173143
7 | 38:28.44 | 5:15.52 | 173144 | 196820
8 | 43:44.21 | 5:42.39 | 196821 | 222509
9 | 49:26.60 | 4:54.59 | 222510 | 244618
Track 1
Filename G:\TORRENTS.ru_Audio CD_rip by readab\Joachim Kuhn, Majid Bekkas, Ramon Lopez - Chalaba (2011)\Joachim Kuhn, Majid Bekkas, Ramon Lopez - Chalaba (2011)\01 - Enjoy.wav
Pre-gap length 0:00:02.00
Peak level 97.6 %
Track quality 100.0 %
Test CRC BB0F1E23
Copy CRC BB0F1E23
Accurately ripped (confidence 1) [387D9B47]
Copy OK
Track 2
Filename G:\TORRENTS.ru_Audio CD_rip by readab\Joachim Kuhn, Majid Bekkas, Ramon Lopez - Chalaba (2011)\Joachim Kuhn, Majid Bekkas, Ramon Lopez - Chalaba (2011)\02 - Asmaa.wav
Pre-gap length 0:00:01.02
Peak level 97.6 %
Track quality 100.0 %
Test CRC 2F189667
Copy CRC 2F189667
Accurately ripped (confidence 1) [035B5390]
Copy OK
Track 3
Filename G:\TORRENTS.ru_Audio CD_rip by readab\Joachim Kuhn, Majid Bekkas, Ramon Lopez - Chalaba (2011)\Joachim Kuhn, Majid Bekkas, Ramon Lopez - Chalaba (2011)\03 - Back To Normal.wav
Pre-gap length 0:00:02.13
Peak level 97.6 %
Track quality 100.0 %
Test CRC 9948C5C5
Copy CRC 9948C5C5
Accurately ripped (confidence 1) [970BA09C]
Copy OK
Track 4
Filename G:\TORRENTS.ru_Audio CD_rip by readab\Joachim Kuhn, Majid Bekkas, Ramon Lopez - Chalaba (2011)\Joachim Kuhn, Majid Bekkas, Ramon Lopez - Chalaba (2011)\04 - Playing Golf In The Fresh Air.wav
Pre-gap length 0:00:00.71
Peak level 97.6 %
Track quality 100.0 %
Test CRC AA0C143A
Copy CRC AA0C143A
Accurately ripped (confidence 1) [F4AE5DC8]
Copy OK
Track 5
Filename G:\TORRENTS.ru_Audio CD_rip by readab\Joachim Kuhn, Majid Bekkas, Ramon Lopez - Chalaba (2011)\Joachim Kuhn, Majid Bekkas, Ramon Lopez - Chalaba (2011)\05 - Chalaba.wav
Pre-gap length 0:00:01.51
Peak level 97.6 %
Track quality 100.0 %
Test CRC D1E6B74A
Copy CRC D1E6B74A
Accurately ripped (confidence 1) [E67BA91A]
Copy OK
Track 6
Filename G:\TORRENTS.ru_Audio CD_rip by readab\Joachim Kuhn, Majid Bekkas, Ramon Lopez - Chalaba (2011)\Joachim Kuhn, Majid Bekkas, Ramon Lopez - Chalaba (2011)\06 - Soon in June.wav
Pre-gap length 0:00:01.22
Peak level 97.6 %
Track quality 100.0 %
Test CRC DCDE6F83
Copy CRC DCDE6F83
Accurately ripped (confidence 1) [8528439A]
Copy OK
Track 7
Filename G:\TORRENTS.ru_Audio CD_rip by readab\Joachim Kuhn, Majid Bekkas, Ramon Lopez - Chalaba (2011)\Joachim Kuhn, Majid Bekkas, Ramon Lopez - Chalaba (2011)\07 - Hamdouchia.wav
Pre-gap length 0:00:01.16
Peak level 97.6 %
Track quality 100.0 %
Test CRC 7BE5C3F4
Copy CRC 7BE5C3F4
Accurately ripped (confidence 1) [DE019B6C]
Copy OK
Track 8
Filename G:\TORRENTS.ru_Audio CD_rip by readab\Joachim Kuhn, Majid Bekkas, Ramon Lopez - Chalaba (2011)\Joachim Kuhn, Majid Bekkas, Ramon Lopez - Chalaba (2011)\08 - The Second Egg.wav
Pre-gap length 0:00:01.46
Peak level 97.6 %
Track quality 100.0 %
Test CRC 508938CF
Copy CRC 508938CF
Accurately ripped (confidence 1) [ADF68247]
Copy OK
Track 9
Filename G:\TORRENTS.ru_Audio CD_rip by readab\Joachim Kuhn, Majid Bekkas, Ramon Lopez - Chalaba (2011)\Joachim Kuhn, Majid Bekkas, Ramon Lopez - Chalaba (2011)\09 - Mimoun Saadiyamou.wav
Pre-gap length 0:00:01.18
Peak level 97.6 %
Track quality 100.0 %
Test CRC 2D2213F3
Copy CRC 2D2213F3
Accurately ripped (confidence 1) [0EF6CCD3]
Copy OK
All tracks accurately ripped
No errors occurred
End of status report
 
Содержание индексной карты (.CUE)
REM GENRE Fusion
REM DATE 2011
REM DISCID 6B0CBD09
REM COMMENT "ExactAudioCopy v0.99pb4"
PERFORMER "Joachim Kuhn, Majid Bekkas, Ramon Lopez"
TITLE "Chalaba"
FILE "01 - Enjoy.wav" WAVE
TRACK 01 AUDIO
TITLE "Enjoy"
PERFORMER "Joachim Kuhn, Majid Bekkas, Ramon Lopez"
INDEX 01 00:00:00
TRACK 02 AUDIO
TITLE "Asmaa"
PERFORMER "Joachim Kuhn, Majid Bekkas, Ramon Lopez"
INDEX 00 05:12:53
FILE "02 - Asmaa.wav" WAVE
INDEX 01 00:00:00
TRACK 03 AUDIO
TITLE "Back To Normal"
PERFORMER "Joachim Kuhn, Majid Bekkas, Ramon Lopez"
INDEX 00 07:02:31
FILE "03 - Back To Normal.wav" WAVE
INDEX 01 00:00:00
TRACK 04 AUDIO
TITLE "Playing Golf In The Fresh Air"
PERFORMER "Joachim Kuhn, Majid Bekkas, Ramon Lopez"
INDEX 00 04:36:58
FILE "04 - Playing Golf In The Fresh Air.wav" WAVE
INDEX 01 00:00:00
TRACK 05 AUDIO
TITLE "Chalaba"
PERFORMER "Joachim Kuhn, Majid Bekkas, Ramon Lopez"
INDEX 00 04:41:13
FILE "05 - Chalaba.wav" WAVE
INDEX 01 00:00:00
TRACK 06 AUDIO
TITLE "Soon in June"
PERFORMER "Joachim Kuhn, Majid Bekkas, Ramon Lopez"
INDEX 00 09:54:28
FILE "06 - Soon in June.wav" WAVE
INDEX 01 00:00:00
TRACK 07 AUDIO
TITLE "Hamdouchia"
PERFORMER "Joachim Kuhn, Majid Bekkas, Ramon Lopez"
INDEX 00 06:52:61
FILE "07 - Hamdouchia.wav" WAVE
INDEX 01 00:00:00
TRACK 08 AUDIO
TITLE "The Second Egg"
PERFORMER "Joachim Kuhn, Majid Bekkas, Ramon Lopez"
INDEX 00 05:14:06
FILE "08 - The Second Egg.wav" WAVE
INDEX 01 00:00:00
TRACK 09 AUDIO
TITLE "Mimoun Saadiyamou"
PERFORMER "Joachim Kuhn, Majid Bekkas, Ramon Lopez"
INDEX 00 05:41:21
FILE "09 - Mimoun Saadiyamou.wav" WAVE
INDEX 01 00:00:00
 
CUETools log
[CUETools log; Date: 15.03.2011 20:14:40; Version: 2.1.1]
[CTDB TOCID: dltXtOzlzEk_ZbP7r5bPFS0YM0g-] disk not present in database.
[AccurateRip ID: 0012cb5e-008abf7c-6b0cbd09] found.
Track [ CRC ] Status
01 [387d9b47] (1/1) Accurately ripped
02 [035b5390] (1/1) Accurately ripped
03 [970ba09c] (1/1) Accurately ripped
04 [f4ae5dc8] (1/1) Accurately ripped
05 [e67ba91a] (1/1) Accurately ripped
06 [8528439a] (1/1) Accurately ripped
07 [de019b6c] (1/1) Accurately ripped
08 [adf68247] (1/1) Accurately ripped
09 [0ef6ccd3] (1/1) Accurately ripped
Track Peak [ CRC32 ] [W/O NULL] [ LOG ]
-- 97,6 [EBFF9268] [690D062D]
01 97,6 [BB0F1E23] [37D79395] CRC32
02 97,6 [2F189667] [68B82745] CRC32
03 97,6 [9948C5C5] [C2771535] CRC32
04 97,6 [AA0C143A] [02C665DE] CRC32
05 97,6 [D1E6B74A] [256DA4C5] CRC32
06 97,6 [DCDE6F83] [1F162994] CRC32
07 97,6 [7BE5C3F4] [AF84CD17] CRC32
08 97,6 [508938CF] [016CE5C0] CRC32
09 97,6 [2D2213F3] [C3E6E1E8] CRC32




Смотри также:
2007 Joachim Kühn / Majid Bekkas / Ramon Lopez - Kalimba ivoronen
2009 Joachim Kühn / Majid Bekkas / Ramon Lopez - Out Of The Desert deepofrain
2011 Joachim Kühn / Majid Bekkas / Ramon Lopez - Chalaba readab
2011 Joachim Kühn Trio & hr-Bigband - Out of the Desert Live at JazzFest Berlin readab
20:49
527
Нет комментариев. Ваш будет первым!