Поиск

(Latin Jazz) Mark Weinstein — Jazz Brasil — 2010, FLAC (image+.cue) lossless

(Latin Jazz) Mark Weinstein — Jazz Brasil — 2010, FLAC (image+.cue) lossless
Треклист:
Mark Weinstein — Jazz Brasil
Жанр: Latin Jazz
Год издания диска: 2010
Лейбл: Jazzheads
Номер по каталогу: JH1182
Аудио кодек: FLAC (*.flac)
Тип рипа: image+.cue
Битрейт аудио: lossless
Продолжительность: 56:27
Риппер: dreadbull
Сканы есть
Треклист:
01. I Mean You (4:16)
02. Triste (6:21)
03. Nefertiti (6:05)
04. Brazil (7:00)
05. Ruby My Dear (5:45)
06. Sambosco (6:06)
07. Dawn's Early Light (7:35)
08. Memphis Underground (4:38)
09. If You Never Come To Me (4:34)
10. Isotope (4:08)
Personnel:
Mark Weinstein - flute, alto flute, bass flute
Kenny Barron - piano
Nilson Matta - bass
Marcello Pellitteri - drums, percussion
 
 
Лог создания рипа
EAC extraction logfile from 2. March 2011, 18:35 for CD
Mark Weinstein / Jazz Brasil
Used drive : ASUS DRW-22B2L Adapter: 0 ID: 1
Read mode : Secure with NO C2, accurate stream, disable cache
Read offset correction : 6
Overread into Lead-In and Lead-Out : No
Used output format : Internal WAV Routines
44.100 Hz; 16 Bit; Stereo
Other options :
Fill up missing offset samples with silence : Yes
Delete leading and trailing silent blocks : No
Installed external ASPI interface
Range status and errors
Selected range
Filename D:\Donkey Files\Mark Weinstein - Jazz Brasil (2010, Jazzheads) [eac-ape-scans]\CDImage.wav
Peak level 89.1 %
Range quality 100.0 %
CRC CB2D4322
Copy OK
No errors occured
End of status report
 
Содержание индексной карты (.CUE)
REM GENRE Jazz
REM DATE 2010
PERFORMER "Mark Weinstein"
TITLE "Jazz Brasil"
FILE "Mark Weinstein - Jazz Brasil.flac" WAVE
TRACK 01 AUDIO
TITLE "I Mean You"
PERFORMER "Mark Weinstein"
INDEX 01 00:00:00
TRACK 02 AUDIO
TITLE "Triste"
PERFORMER "Mark Weinstein"
FLAGS DCP
INDEX 00 04:13:18
INDEX 01 04:16:18
TRACK 03 AUDIO
TITLE "Nefertiti"
PERFORMER "Mark Weinstein"
FLAGS DCP
INDEX 00 10:33:66
INDEX 01 10:36:66
TRACK 04 AUDIO
TITLE "Brazil"
PERFORMER "Mark Weinstein"
FLAGS DCP
INDEX 00 16:38:33
INDEX 01 16:41:33
TRACK 05 AUDIO
TITLE "Ruby My Dear"
PERFORMER "Mark Weinstein"
FLAGS DCP
INDEX 00 23:38:67
INDEX 01 23:41:67
TRACK 06 AUDIO
TITLE "Sambosco"
PERFORMER "Mark Weinstein"
FLAGS DCP
INDEX 00 29:23:30
INDEX 01 29:26:30
TRACK 07 AUDIO
TITLE "Dawn's Early Light"
PERFORMER "Mark Weinstein"
FLAGS DCP
INDEX 00 35:29:36
INDEX 01 35:32:36
TRACK 08 AUDIO
TITLE "Memphis Underground"
PERFORMER "Mark Weinstein"
FLAGS DCP
INDEX 00 43:04:11
INDEX 01 43:07:11
TRACK 09 AUDIO
TITLE "If You Never Come To Me"
PERFORMER "Mark Weinstein"
FLAGS DCP
INDEX 00 47:41:60
INDEX 01 47:44:60
TRACK 10 AUDIO
TITLE "Isotope"
PERFORMER "Mark Weinstein"
FLAGS DCP
INDEX 00 52:15:41
INDEX 01 52:18:41
19:48
341
Нет комментариев. Ваш будет первым!