Поиск

(World Fusion) [CD] Lloyd Miller Trio & Press Keys Quartet - Oriental Jazz - 1968 (2009), FLAC (tracks+.cue), lossless

(World Fusion) [CD] Lloyd Miller Trio & Press Keys Quartet - Oriental Jazz - 1968 (2009), FLAC (tracks+.cue), lossless
Треклист:
Lloyd Miller Trio & Press Keys Quartet - Oriental Jazz
Жанр: World Fusion
Носитель: CD
Страна-производитель диска (релиза): США
Год издания: 1968 (2009)
Издатель (лейбл): East-West / Eastern Arts
Номер по каталогу: EW 3
Аудиокодек: FLAC (*.flac)
Тип рипа: tracks+.cue
Битрейт аудио: lossless
Продолжительность: 44:11
Источник (релизер): ukasoy (what)
Наличие сканов в содержимом раздачи: нет
Треклист:
01. Gol-E Gandom (Trad.) - 4:12
02. Njonja Mirah & Yona (Miller) - 6:01
03. Tanya (Miller) - 4:43
04. Guzel Gozler (Amber Eyes) (Miller) - 4:52
05. Natanie (Miller) - 2:14
06. Hue Wail (Miller) - 2:46
07. Njonja Mirah & Yona (Second Version) (Miller) - 5:46
08. Impression of Bhairava Raga (Miller) - 4:24
09. Prelude in the Iranian Mode Shur (Miller) - 1:07
10. Pentalogic (Miller) - 3:36
11. Sahar-E Meh-Alude (Early Morning Mist) (Miller) - 4:30
 
Лог создания рипа
Exact Audio Copy V1.0 beta 3 from 29. August 2011
EAC extraction logfile from 29. March 2015, 18:59
Lloyd Miller With Press Keys Quartet, And The Lloyd Miller Trio / Oriental Jazz
Used drive : HL-DT-STDVDRAM GH24NS50 Adapter: 5 ID: 0
Read mode : Secure
Utilize accurate stream : Yes
Defeat audio cache : Yes
Make use of C2 pointers : No
Read offset correction : 667
Overread into Lead-In and Lead-Out : No
Fill up missing offset samples with silence : Yes
Delete leading and trailing silent blocks : No
Null samples used in CRC calculations : Yes
Used interface : Native Win32 interface for Win NT & 2000
Gap handling : Appended to previous track
Used output format : User Defined Encoder
Selected bitrate : 1024 kBit/s
Quality : High
Add ID3 tag : No
Command line compressor : C:\Program Files (x86)\Exact Audio Copy\FLAC\FLAC.EXE
Additional command line options : -8 -V -T "ARTIST=%artist%" -T "TITLE=%title%" -T "ALBUM=%albumtitle%" -T "DATE=%year%" -T "TRACKNUMBER=%tracknr%" -T "GENRE=%genre%" -T "PERFORMER=%albuminterpret%" -T "COMPOSER=%composer%" %haslyrics%--tag-from-file=LYRICS="%lyricsfile%"%haslyrics% -T "ALBUMARTIST=%albumartist%" -T "DISCNUMBER=%cdnumber%" -T "TOTALDISCS=%totalcds%" -T "TOTALTRACKS=%numtracks%" -T "COMMENT=%comment%" %source% -o %dest%
TOC of the extracted CD
Track | Start | Length | Start sector | End sector
---------------------------------------------------------
1 | 0:00.00 | 4:12.19 | 0 | 18918
2 | 4:12.19 | 6:00.54 | 18919 | 45972
3 | 10:12.73 | 4:43.17 | 45973 | 67214
4 | 14:56.15 | 4:51.62 | 67215 | 89101
5 | 19:48.02 | 2:14.06 | 89102 | 99157
6 | 22:02.08 | 2:46.05 | 99158 | 111612
7 | 24:48.13 | 5:45.63 | 111613 | 137550
8 | 30:34.01 | 4:24.08 | 137551 | 157358
9 | 34:58.09 | 1:07.25 | 157359 | 162408
10 | 36:05.34 | 3:36.20 | 162409 | 178628
11 | 39:41.54 | 4:29.54 | 178629 | 198857
Track 1
Filename K:\EAC\01 - Gol-E Gandom.wav
Pre-gap length 0:00:02.00
Peak level 69.4 %
Extraction speed 1.0 X
Track quality 100.0 %
Test CRC 919AD4C0
Copy CRC 919AD4C0
Track not present in AccurateRip database
Copy OK
Track 2
Filename K:\EAC\02 - Njonja Mirah & Yona.wav
Peak level 100.0 %
Extraction speed 1.2 X
Track quality 100.0 %
Test CRC 46D70A8E
Copy CRC 46D70A8E
Track not present in AccurateRip database
Copy OK
Track 3
Filename K:\EAC\03 - Tanya.wav
Peak level 90.3 %
Extraction speed 1.3 X
Track quality 100.0 %
Test CRC 584B1497
Copy CRC 584B1497
Track not present in AccurateRip database
Copy OK
Track 4
Filename K:\EAC\04 - Guzel Gozler (Amber Eyes).wav
Peak level 100.0 %
Extraction speed 1.3 X
Track quality 99.9 %
Test CRC DE1E2904
Copy CRC DE1E2904
Track not present in AccurateRip database
Copy OK
Track 5
Filename K:\EAC\05 - Natanie.wav
Peak level 81.6 %
Extraction speed 1.1 X
Track quality 99.9 %
Test CRC CACD16BD
Copy CRC CACD16BD
Track not present in AccurateRip database
Copy OK
Track 6
Filename K:\EAC\06 - Hue Wail.wav
Peak level 90.5 %
Extraction speed 1.5 X
Track quality 100.0 %
Test CRC D22B3D50
Copy CRC D22B3D50
Track not present in AccurateRip database
Copy OK
Track 7
Filename K:\EAC\07 - Njonja Mirah & Yona (Second Version).wav
Peak level 100.0 %
Extraction speed 1.7 X
Track quality 100.0 %
Test CRC C77C206D
Copy CRC C77C206D
Track not present in AccurateRip database
Copy OK
Track 8
Filename K:\EAC\08 - Impression Of Bhairava Raga.wav
Peak level 89.8 %
Extraction speed 1.8 X
Track quality 100.0 %
Test CRC A3874CFC
Copy CRC A3874CFC
Track not present in AccurateRip database
Copy OK
Track 9
Filename K:\EAC\09 - Prelude In The Iranian Mode Shur.wav
Peak level 100.0 %
Extraction speed 1.2 X
Track quality 100.0 %
Test CRC 6524DD8D
Copy CRC 6524DD8D
Track not present in AccurateRip database
Copy OK
Track 10
Filename K:\EAC\10 - Pentalogic.wav
Peak level 100.0 %
Extraction speed 1.8 X
Track quality 100.0 %
Test CRC 5452BE9A
Copy CRC 5452BE9A
Track not present in AccurateRip database
Copy OK
Track 11
Filename K:\EAC\11 - Sahar-E Meh-Alude (Early Morning Mist).wav
Peak level 100.0 %
Extraction speed 1.9 X
Track quality 100.0 %
Test CRC E02E9E89
Copy CRC E02E9E89
Track not present in AccurateRip database
Copy OK
None of the tracks are present in the AccurateRip database
No errors occurred
End of status report
==== Log checksum 2AD978BA7ED7FBF4147B7451E31EB6745864E26D0ED00FA008837C36CF3E1852 ====
 
Содержание индексной карты (.CUE)
REM GENRE Jazz
REM DATE 1968
REM DISCID 890A5B0B
REM COMMENT "ExactAudioCopy v1.0b3"
PERFORMER "Lloyd Miller"
TITLE "Oriental Jazz"
FILE "01 - Gol-E Gandom.wav" WAVE
TRACK 01 AUDIO
TITLE "Gol-E Gandom"
PERFORMER "Lloyd Miller"
INDEX 01 00:00:00
FILE "02 - Njonja Mirah & Yona.wav" WAVE
TRACK 02 AUDIO
TITLE "Njonja Mirah & Yona"
PERFORMER "Lloyd Miller"
INDEX 01 00:00:00
FILE "03 - Tanya.wav" WAVE
TRACK 03 AUDIO
TITLE "Tanya"
PERFORMER "Lloyd Miller"
INDEX 01 00:00:00
FILE "04 - Guzel Gozler (Amber Eyes).wav" WAVE
TRACK 04 AUDIO
TITLE "Guzel Gozler (Amber Eyes)"
PERFORMER "Lloyd Miller"
INDEX 01 00:00:00
FILE "05 - Natanie.wav" WAVE
TRACK 05 AUDIO
TITLE "Natanie"
PERFORMER "Lloyd Miller"
INDEX 01 00:00:00
FILE "06 - Hue Wail.wav" WAVE
TRACK 06 AUDIO
TITLE "Hue Wail"
PERFORMER "Lloyd Miller"
INDEX 01 00:00:00
FILE "07 - Njonja Mirah & Yona (Second Version).wav" WAVE
TRACK 07 AUDIO
TITLE "Njonja Mirah & Yona (Second Version)"
PERFORMER "Lloyd Miller"
INDEX 01 00:00:00
FILE "08 - Impression of Bhairava Raga.wav" WAVE
TRACK 08 AUDIO
TITLE "Impression of Bhairava Raga"
PERFORMER "Lloyd Miller"
INDEX 01 00:00:00
FILE "09 - Prelude in the Iranian Mode Shur.wav" WAVE
TRACK 09 AUDIO
TITLE "Prelude in the Iranian Mode Shur"
PERFORMER "Lloyd Miller"
INDEX 01 00:00:00
FILE "10 - Pentalogic.wav" WAVE
TRACK 10 AUDIO
TITLE "Pentalogic"
PERFORMER "Lloyd Miller"
INDEX 01 00:00:00
FILE "11 - Sahar-E Meh-Alude (Early Morning Mist).wav" WAVE
TRACK 11 AUDIO
TITLE "Sahar-E Meh-Alude (Early Morning Mist)"
PERFORMER "Lloyd Miller"
INDEX 01 00:00:00
 
Об альбоме (сборнике)
Dr. Lloyd Miller spent 7 years in Eastern countries and 6 years playing jazz in Europe during the 1950s-1970s, and has been working with Eastern cultures since 1950. During the 1950s and 60s, Miller played with top jazz artists in Europe like Don Ellis (where he was inspired by Miller's Eastern concepts) and Eddie Harris including occasional appearances at the famous Blue Note in Paris where he sat in for Bud Powel to play with Kenny Clark.
During his residence in Europe, Miller was prominent in the Stockholm, Frankfurt, Brussels and Paris jazz scenes and played at two major jazz festivals in Belgium. During the 1970s, Miller hosted his own prime-time main network jazz show on NIRTV in Tehran, Iran.
 
Состав
#1-5:
Lloyd Miller - santur, oud, clarinet, dan tranh, piano, cornet, zarb
Press Keys - piano, valve trombone
Don West - bass
Dick Beeson - drums, zarb
#6-11:
Lloyd Miller - piano, bass, drums
Steve Stout - bass
Alan Russek - drums
18:12
292
Нет комментариев. Ваш будет первым!