Поиск

(Latin Jazz, Brazilian Jazz) [CD] Paulinho da Viola - Meu Tempo E Hoje - 2003, FLAC (tracks+.cue), lossless

(Latin Jazz, Brazilian Jazz) [CD] Paulinho da Viola - Meu Tempo E Hoje - 2003, FLAC (tracks+.cue), lossless
Paulinho da Viola - Meu Tempo É Hoje Жанр: Latin Jazz, Brazilian Jazz
Носитель: CD
Год издания: 2003
Издатель (лейбл): Biscoito Fino
Номер по каталогу: BF-561
Аудиокодек: FLAC (*.flac)
Тип рипа: tracks+.cue
Битрейт аудио: lossless
Продолжительность: 39:58
Источник (релизер): What.cd (cryptic13)
Наличие сканов в содержимом раздачи: да
Треклист:
01. Meu Mundo É Hoje (1:24)
02. Pot-Pourri: Injúria / Recado / O Sol Nascerá / Jurar com Lágrimas (4:08)
03. 14 Anos (1:33)
04. Rosinha, Essa Menina (1:42)
05. Ruas que Sonhei (2:00)
06. Sinal Fechado (2:43)
07. Chora Cavaquinho (2:02)
08. Carinhoso (1:49)
09. Pra Fugir da Saudade (2:25)
10. Filosofia (2:40)
11. Pot-Pourri: De Paulo da Portela a Paulinho da Viola / Foi um Rio que Passou na Minha Vida (4:21)
12. Conflito (3:29)
13. Retiro (1:09)
14. Coisas do Mundo, Minha Nêga (3:18)
15. Um Sarau para Raphael (4:39)
16. Argumento (0:37)
 
 
Лог создания рипа
Exact Audio Copy V1.0 beta 3 from 29. August 2011
EAC extraction logfile from 27. February 2013, 21:38
Paulinho da Viola / Meu Tempo E Hoje
Used drive : ASUS DRW-24B1ST a Adapter: 7 ID: 0
Read mode : Secure
Utilize accurate stream : Yes
Defeat audio cache : Yes
Make use of C2 pointers : No
Read offset correction : 6
Overread into Lead-In and Lead-Out : No
Fill up missing offset samples with silence : Yes
Delete leading and trailing silent blocks : No
Null samples used in CRC calculations : Yes
Used interface : Native Win32 interface for Win NT & 2000
Gap handling : Appended to previous track
Used output format : User Defined Encoder
Selected bitrate : 1024 kBit/s
Quality : High
Add ID3 tag : No
Command line compressor : C:\Program Files (x86)\Exact Audio Copy\Flac\flac.exe
Additional command line options : -8 -V -T "ARTIST=%artist%" -T "TITLE=%title%" -T "ALBUM=%albumtitle%" -T "DATE=%year%" -T "TRACKNUMBER=%tracknr%" -T "TOTALTRACKS=%numtracks%" -T "GENRE=%genre%" -T "ALBUM ARTIST=%albumartist%" -T "ALBUMARTIST=%albumartist%" -T "COMPOSER=%albumcomposer%" -T "PERFORMER=%albuminterpret%" %haslyrics%-T "LYRICS=%lyrics%"%haslyrics% -T "COMMENT=EAC V1.0 beta 3, Secure Mode, Test & Copy, AccurateRip, FLAC -8" %source%
TOC of the extracted CD
Track | Start | Length | Start sector | End sector
---------------------------------------------------------
1 | 0:00.00 | 1:24.02 | 0 | 6301
2 | 1:24.02 | 4:07.51 | 6302 | 24877
3 | 5:31.53 | 1:32.46 | 24878 | 31823
4 | 7:04.24 | 1:42.27 | 31824 | 39500
5 | 8:46.51 | 1:59.54 | 39501 | 48479
6 | 10:46.30 | 2:43.01 | 48480 | 60705
7 | 13:29.31 | 2:02.02 | 60706 | 69857
8 | 15:31.33 | 1:49.22 | 69858 | 78054
9 | 17:20.55 | 2:24.70 | 78055 | 88924
10 | 19:45.50 | 2:39.38 | 88925 | 100887
11 | 22:25.13 | 4:21.13 | 100888 | 120475
12 | 26:46.26 | 3:29.17 | 120476 | 136167
13 | 30:15.43 | 1:09.16 | 136168 | 141358
14 | 31:24.59 | 3:17.55 | 141359 | 156188
15 | 34:42.39 | 4:38.58 | 156189 | 177096
16 | 39:21.22 | 0:37.02 | 177097 | 179873
Track 1
Filename D:\01 - Meu Mundo E Hoje.wav
Pre-gap length 0:00:02.00
Peak level 100.0 %
Extraction speed 2.7 X
Track quality 100.0 %
Test CRC 7A24142C
Copy CRC 7A24142C
Cannot be verified as accurate (confidence 4) [5359E3C1], AccurateRip returned [6A123BC5] (AR v2)
Copy OK
Track 2
Filename D:\02 - Pot-Pourri- Injuria - Recado - O Sol Nascera - Jurar com Lagrimas.wav
Pre-gap length 0:00:01.13
Peak level 100.0 %
Extraction speed 3.1 X
Track quality 99.9 %
Test CRC F1BA3390
Copy CRC F1BA3390
Cannot be verified as accurate (confidence 4) [AA4A68EE], AccurateRip returned [7588CC3D] (AR v2)
Copy OK
Track 3
Filename D:\03 - 14 Anos.wav
Peak level 100.0 %
Extraction speed 2.2 X
Track quality 99.8 %
Test CRC C74352AD
Copy CRC C74352AD
Cannot be verified as accurate (confidence 4) [1C9585EE], AccurateRip returned [28FB63E0] (AR v2)
Copy OK
Track 4
Filename D:\04 - Rosinha, Essa Menina.wav
Peak level 100.0 %
Extraction speed 3.6 X
Track quality 100.0 %
Test CRC 479FE237
Copy CRC 479FE237
Cannot be verified as accurate (confidence 4) [1C1B7B45], AccurateRip returned [ED7BD04B] (AR v2)
Copy OK
Track 5
Filename D:\05 - Ruas que Sonhei.wav
Peak level 100.0 %
Extraction speed 3.9 X
Track quality 100.0 %
Test CRC 9ADD01CF
Copy CRC 9ADD01CF
Cannot be verified as accurate (confidence 4) [EE552D9B], AccurateRip returned [8A1E43C5] (AR v2)
Copy OK
Track 6
Filename D:\06 - Sinal Fechado.wav
Pre-gap length 0:00:01.48
Peak level 89.0 %
Extraction speed 3.2 X
Track quality 99.9 %
Test CRC 1AD426F4
Copy CRC 1AD426F4
Cannot be verified as accurate (confidence 5) [0B56B559], AccurateRip returned [EEC59D21] (AR v2)
Copy OK
Track 7
Filename D:\07 - Chora Cavaquinho.wav
Pre-gap length 0:00:01.81
Peak level 100.0 %
Extraction speed 4.2 X
Track quality 100.0 %
Test CRC 2B00C0DE
Copy CRC 2B00C0DE
Cannot be verified as accurate (confidence 4) [7A9AC9F2], AccurateRip returned [2ED46C60] (AR v2)
Copy OK
Track 8
Filename D:\08 - Carinhoso.wav
Peak level 100.0 %
Extraction speed 4.2 X
Track quality 100.0 %
Test CRC 4ED2ABA0
Copy CRC 4ED2ABA0
Cannot be verified as accurate (confidence 4) [94979FB6], AccurateRip returned [2F2395B5] (AR v2)
Copy OK
Track 9
Filename D:\09 - Pra Fugir da Saudade.wav
Pre-gap length 0:00:01.65
Peak level 100.0 %
Extraction speed 4.7 X
Track quality 100.0 %
Test CRC 3D179710
Copy CRC 3D179710
Cannot be verified as accurate (confidence 4) [A301E8FE], AccurateRip returned [5F70C3D8] (AR v2)
Copy OK
Track 10
Filename D:\10 - Filosofia.wav
Peak level 94.3 %
Extraction speed 4.9 X
Track quality 100.0 %
Test CRC 56EC8EBF
Copy CRC 56EC8EBF
Cannot be verified as accurate (confidence 4) [D545E517], AccurateRip returned [83D739DE] (AR v2)
Copy OK
Track 11
Filename D:\11 - Pot-Pourri- De Paulo da Portela a Paulinho da Viola - Foi um Rio que Passou na Minha Vida.wav
Pre-gap length 0:00:01.69
Peak level 100.0 %
Extraction speed 5.5 X
Track quality 100.0 %
Test CRC 00E6C77F
Copy CRC 00E6C77F
Cannot be verified as accurate (confidence 4) [BC80AA4B], AccurateRip returned [2DC98358] (AR v2)
Copy OK
Track 12
Filename D:\12 - Conflito.wav
Pre-gap length 0:00:01.14
Peak level 100.0 %
Extraction speed 5.7 X
Track quality 100.0 %
Test CRC 6CAE0B8F
Copy CRC 6CAE0B8F
Cannot be verified as accurate (confidence 4) [4754DECF], AccurateRip returned [341C78DD] (AR v2)
Copy OK
Track 13
Filename D:\13 - Retiro.wav
Pre-gap length 0:00:01.57
Peak level 100.0 %
Extraction speed 4.3 X
Track quality 100.0 %
Test CRC 1F4899C0
Copy CRC 1F4899C0
Cannot be verified as accurate (confidence 4) [64799DBD], AccurateRip returned [7B74B3E6] (AR v2)
Copy OK
Track 14
Filename D:\14 - Coisas do Mundo, Minha Nega.wav
Pre-gap length 0:00:01.86
Peak level 100.0 %
Extraction speed 5.9 X
Track quality 100.0 %
Test CRC 0623C8FF
Copy CRC 0623C8FF
Cannot be verified as accurate (confidence 4) [0FB56C33], AccurateRip returned [AB7B1262] (AR v2)
Copy OK
Track 15
Filename D:\15 - Um Sarau para Raphael.wav
Pre-gap length 0:00:01.56
Peak level 100.0 %
Extraction speed 6.4 X
Track quality 100.0 %
Test CRC 51F0735F
Copy CRC 51F0735F
Cannot be verified as accurate (confidence 4) [6C95F38E], AccurateRip returned [8EAF9695] (AR v2)
Copy OK
Track 16
Filename D:\16 - Argumento.wav
Pre-gap length 0:00:02.02
Peak level 100.0 %
Extraction speed 3.6 X
Track quality 100.0 %
Test CRC FCA8EEF3
Copy CRC FCA8EEF3
Cannot be verified as accurate (confidence 4) [EAE28779], AccurateRip returned [C931BBC2] (AR v2)
Copy OK
No tracks could be verified as accurate
You may have a different pressing from the one(s) in the database
No errors occurred
End of status report
==== Log checksum 30AD280E448A62005FBA601A8C0D2E5562C4164D37E7C189F263CDD763130120 ====
 
Содержание индексной карты (.CUE)
REM GENRE Latin Jazz
REM DATE 2003
REM DISCID D9095E10
REM COMMENT "ExactAudioCopy v1.0b3"
PERFORMER "Paulinho da Viola"
TITLE "Meu Tempo É Hoje"
FILE "01 - Meu Mundo E Hoje.flac" WAVE
TRACK 01 AUDIO
TITLE "Meu Mundo É Hoje"
PERFORMER "Paulinho da Viola"
ISRC BRPUI0300275
INDEX 01 00:00:00
TRACK 02 AUDIO
TITLE "Pot-Pourri: Injúria / Recado / O Sol Nascerá / Jurar com Lágrimas"
PERFORMER "Paulinho da Viola"
ISRC BRPUI0300276
INDEX 00 01:22:67
FILE "02 - Pot-Pourri- Injuria - Recado - O Sol Nascera - Jurar com Lagrimas.flac" WAVE
INDEX 01 00:00:00
FILE "03 - 14 Anos.flac" WAVE
TRACK 03 AUDIO
TITLE "14 Anos"
PERFORMER "Paulinho da Viola"
ISRC BRPUI0300277
INDEX 01 00:00:00
FILE "04 - Rosinha, Essa Menina.flac" WAVE
TRACK 04 AUDIO
TITLE "Rosinha, Essa Menina"
PERFORMER "Paulinho da Viola"
ISRC BRPUI0300278
INDEX 01 00:00:00
FILE "05 - Ruas que Sonhei.flac" WAVE
TRACK 05 AUDIO
TITLE "Ruas que Sonhei"
PERFORMER "Paulinho da Viola"
ISRC BRPUI0300279
INDEX 01 00:00:00
TRACK 06 AUDIO
TITLE "Sinal Fechado"
PERFORMER "Paulinho da Viola"
ISRC BRPUI0300280
INDEX 00 01:58:18
FILE "06 - Sinal Fechado.flac" WAVE
INDEX 01 00:00:00
TRACK 07 AUDIO
TITLE "Chora Cavaquinho"
PERFORMER "Paulinho da Viola"
ISRC BRPUI0300281
INDEX 00 02:41:15
FILE "07 - Chora Cavaquinho.flac" WAVE
INDEX 01 00:00:00
FILE "08 - Carinhoso.flac" WAVE
TRACK 08 AUDIO
TITLE "Carinhoso"
PERFORMER "Paulinho da Viola"
ISRC BRPUI0300282
INDEX 01 00:00:00
TRACK 09 AUDIO
TITLE "Pra Fugir da Saudade"
PERFORMER "Paulinho da Viola"
ISRC BRPUI0300283
INDEX 00 01:47:48
FILE "09 - Pra Fugir da Saudade.flac" WAVE
INDEX 01 00:00:00
FILE "10 - Filosofia.flac" WAVE
TRACK 10 AUDIO
TITLE "Filosofia"
PERFORMER "Paulinho da Viola"
ISRC BRPUI0300284
INDEX 01 00:00:00
TRACK 11 AUDIO
TITLE "Pot-Pourri: De Paulo da Portela a Paulinho da Viola - Foi um Rio que Passou na Minha Vida"
PERFORMER "Paulinho da Viola"
ISRC BRPUI0300286
INDEX 00 02:37:61
FILE "11 - Pot-Pourri- De Paulo da Portela a Paulinho da Viola....flac" WAVE
INDEX 01 00:00:00
TRACK 12 AUDIO
TITLE "Conflito"
PERFORMER "Paulinho da Viola"
ISRC BRPUI0300287
INDEX 00 04:20:02
FILE "12 - Conflito.flac" WAVE
INDEX 01 00:00:00
TRACK 13 AUDIO
TITLE "Retiro"
PERFORMER "Paulinho da Viola"
ISRC BRPUI0300288
INDEX 00 03:27:49
FILE "13 - Retiro.flac" WAVE
INDEX 01 00:00:00
TRACK 14 AUDIO
TITLE "Coisas do Mundo, Minha Nêga"
PERFORMER "Paulinho da Viola"
ISRC BRPUI0300289
INDEX 00 01:07:26
FILE "14 - Coisas do Mundo, Minha Nega.flac" WAVE
INDEX 01 00:00:00
TRACK 15 AUDIO
TITLE "Um Sarau para Raphael"
PERFORMER "Paulinho da Viola"
ISRC BRPUI0300290
INDEX 00 03:16:13
FILE "15 - Um Sarau para Raphael.flac" WAVE
INDEX 01 00:00:00
TRACK 16 AUDIO
TITLE "Argumento"
PERFORMER "Paulinho da Viola"
ISRC BRPUI0300291
INDEX 00 04:36:56
FILE "16 - Argumento.flac" WAVE
INDEX 01 00:00:00
18:12
272
Нет комментариев. Ваш будет первым!