Поиск

(World Fusion) [CD] Lalo Schifrin - There's A Whole Lalo Schifrin Goin' On (1968) - 2013, FLAC (tracks+.cue), lossless

(World Fusion) [CD] Lalo Schifrin - There's A Whole Lalo Schifrin Goin' On (1968) - 2013, FLAC (tracks+.cue), lossless
Lalo Schifrin - There's A Whole Lalo Schifrin Goin' On (1968) Жанр: World Fusion
Носитель: CD
Год издания: 2013
Издатель (лейбл): Dot Records/EmArcy/Universal
Номер по каталогу: 534 293 8
Аудиокодек: FLAC (*.flac)
Тип рипа: tracks+.cue
Битрейт аудио: lossless
Продолжительность: 40:15
Источник (релизер): ruskaval
Наличие сканов в содержимом раздачи: да
Треклист:
01. Secret Code Synthesizer (2:31)
02. Dissolving (2:33)
03. Machinations (2:45)
04. Bride Of The Wind (2:39)
05. Life Insurance (2:10)
06. How To Open At Will The Most Beautiful Window (3:03)
07. Vaccinated Mushrooms (2:16)
08. Two Petals, A Flower And A Young Girl (2:45)
09. Wheat Germ Landscapes (2:45)
10. Gentle Earthquake (3:32)
11. Hawks Versus Doves (2:29)
12. Lucille (Bonus track) (2:46)
13. Self-Destruct (Bonus track) (2:40)
14. Another Side Of Harry (Bonus track) (2:28)
15. Blues A Go-Go (Bonus track) (2:52)
 
 
Лог создания рипа
Exact Audio Copy V1.0 beta 3 from 29. August 2011
EAC extraction logfile from 2. September 2015, 16:28
Lalo Schifrin / There's a whole Lalo Schifrin goin'on
Used drive : PLEXTOR BD-R PX-B950SA Adapter: 3 ID: 0
Read mode : Secure
Utilize accurate stream : Yes
Defeat audio cache : Yes
Make use of C2 pointers : No
Read offset correction : 6
Overread into Lead-In and Lead-Out : No
Fill up missing offset samples with silence : Yes
Delete leading and trailing silent blocks : No
Null samples used in CRC calculations : Yes
Used interface : Native Win32 interface for Win NT & 2000
Gap handling : Appended to previous track
Used output format : User Defined Encoder
Selected bitrate : 1024 kBit/s
Quality : High
Add ID3 tag : No
Command line compressor : C:\Program Files (x86)\Exact Audio Copy\Flac\flac.exe
Additional command line options : -8 -V -T "ARTIST=%artist%" -T "TITLE=%title%" -T "ALBUM=%albumtitle%" -T "DATE=%year%" -T "TRACKNUMBER=%tracknr%" -T "TOTALTRACKS=%numtracks%" -T "GENRE=%genre%" -T "ALBUMARTIST=%albumartist%" -T "ALBUM ARTIST=%albumartist%" -T "COMMENT=EAC Secure Mode, Test & Copy, AccurateRip, FLAC -8" %source%
TOC of the extracted CD
Track | Start | Length | Start sector | End sector
---------------------------------------------------------
1 | 0:00.00 | 2:31.32 | 0 | 11356
2 | 2:31.32 | 2:32.70 | 11357 | 22826
3 | 5:04.27 | 2:45.07 | 22827 | 35208
4 | 7:49.34 | 2:38.72 | 35209 | 47130
5 | 10:28.31 | 2:09.72 | 47131 | 56877
6 | 12:38.28 | 3:03.31 | 56878 | 70633
7 | 15:41.59 | 2:16.20 | 70634 | 80853
8 | 17:58.04 | 2:45.05 | 80854 | 93233
9 | 20:43.09 | 2:44.54 | 93234 | 105587
10 | 23:27.63 | 3:32.21 | 105588 | 121508
11 | 27:00.09 | 2:29.12 | 121509 | 132695
12 | 29:29.21 | 2:45.48 | 132696 | 145118
13 | 32:14.69 | 2:39.70 | 145119 | 157113
14 | 34:54.64 | 2:28.07 | 157114 | 168220
15 | 37:22.71 | 2:52.16 | 168221 | 181136
Track 1
Filename Z:\#Torrents\Eigene\#EAC default\Lalo Schifrin - There's A Whole Lalo Schifrin Goin' On (1968) [FLAC]\01 - Secret code synthesizer.wav
Pre-gap length 0:00:02.00
Peak level 91.5 %
Extraction speed 3.9 X
Track quality 100.0 %
Test CRC CF93FE13
Copy CRC CF93FE13
Accurately ripped (confidence 1) [98C3516D] (AR v2)
Copy OK
Track 2
Filename Z:\#Torrents\Eigene\#EAC default\Lalo Schifrin - There's A Whole Lalo Schifrin Goin' On (1968) [FLAC]\02 - Dissolving.wav
Pre-gap length 0:00:02.00
Peak level 95.1 %
Extraction speed 4.3 X
Track quality 100.0 %
Test CRC 3084A2F8
Copy CRC 3084A2F8
Accurately ripped (confidence 1) [DF9FF829] (AR v2)
Copy OK
Track 3
Filename Z:\#Torrents\Eigene\#EAC default\Lalo Schifrin - There's A Whole Lalo Schifrin Goin' On (1968) [FLAC]\03 - Machinations.wav
Pre-gap length 0:00:02.00
Peak level 97.3 %
Extraction speed 4.7 X
Track quality 100.0 %
Test CRC 7176635B
Copy CRC 7176635B
Accurately ripped (confidence 1) [46C0AB4B] (AR v2)
Copy OK
Track 4
Filename Z:\#Torrents\Eigene\#EAC default\Lalo Schifrin - There's A Whole Lalo Schifrin Goin' On (1968) [FLAC]\04 - Bride of the wind.wav
Pre-gap length 0:00:02.00
Peak level 76.7 %
Extraction speed 4.9 X
Track quality 100.0 %
Test CRC A8ED8808
Copy CRC A8ED8808
Accurately ripped (confidence 1) [706FD63F] (AR v2)
Copy OK
Track 5
Filename Z:\#Torrents\Eigene\#EAC default\Lalo Schifrin - There's A Whole Lalo Schifrin Goin' On (1968) [FLAC]\05 - Life insurance.wav
Pre-gap length 0:00:02.00
Peak level 81.3 %
Extraction speed 4.9 X
Track quality 100.0 %
Test CRC 474296B5
Copy CRC 474296B5
Accurately ripped (confidence 1) [5DB25A37] (AR v2)
Copy OK
Track 6
Filename Z:\#Torrents\Eigene\#EAC default\Lalo Schifrin - There's A Whole Lalo Schifrin Goin' On (1968) [FLAC]\06 - How to open at will the most beautiful window.wav
Pre-gap length 0:00:02.00
Peak level 73.1 %
Extraction speed 5.5 X
Track quality 100.0 %
Test CRC 0A2254D6
Copy CRC 0A2254D6
Accurately ripped (confidence 1) [C41D3A5F] (AR v2)
Copy OK
Track 7
Filename Z:\#Torrents\Eigene\#EAC default\Lalo Schifrin - There's A Whole Lalo Schifrin Goin' On (1968) [FLAC]\07 - Vaccinated mushrooms.wav
Pre-gap length 0:00:02.00
Peak level 89.8 %
Extraction speed 5.4 X
Track quality 100.0 %
Test CRC 766DFCA6
Copy CRC 766DFCA6
Accurately ripped (confidence 1) [36FF1BE9] (AR v2)
Copy OK
Track 8
Filename Z:\#Torrents\Eigene\#EAC default\Lalo Schifrin - There's A Whole Lalo Schifrin Goin' On (1968) [FLAC]\08 - Two petals, a flower and a young girl.wav
Pre-gap length 0:00:02.00
Peak level 77.7 %
Extraction speed 5.8 X
Track quality 100.0 %
Test CRC 41C4635F
Copy CRC 41C4635F
Accurately ripped (confidence 1) [9404118A] (AR v2)
Copy OK
Track 9
Filename Z:\#Torrents\Eigene\#EAC default\Lalo Schifrin - There's A Whole Lalo Schifrin Goin' On (1968) [FLAC]\09 - Wheat germ landscapes.wav
Pre-gap length 0:00:02.00
Peak level 97.5 %
Extraction speed 6.0 X
Track quality 100.0 %
Test CRC C1CEAC18
Copy CRC C1CEAC18
Accurately ripped (confidence 1) [56022906] (AR v2)
Copy OK
Track 10
Filename Z:\#Torrents\Eigene\#EAC default\Lalo Schifrin - There's A Whole Lalo Schifrin Goin' On (1968) [FLAC]\10 - Gentle earthquake.wav
Pre-gap length 0:00:02.00
Peak level 81.3 %
Extraction speed 6.6 X
Track quality 100.0 %
Test CRC A07DA56D
Copy CRC A07DA56D
Accurately ripped (confidence 1) [9CCD3990] (AR v2)
Copy OK
Track 11
Filename Z:\#Torrents\Eigene\#EAC default\Lalo Schifrin - There's A Whole Lalo Schifrin Goin' On (1968) [FLAC]\11 - Hawks versus doves.wav
Pre-gap length 0:00:02.00
Peak level 85.0 %
Extraction speed 6.4 X
Track quality 100.0 %
Test CRC 6855FFF0
Copy CRC 6855FFF0
Accurately ripped (confidence 1) [54C75C5D] (AR v2)
Copy OK
Track 12
Filename Z:\#Torrents\Eigene\#EAC default\Lalo Schifrin - There's A Whole Lalo Schifrin Goin' On (1968) [FLAC]\12 - Lucille (Bonus track).wav
Pre-gap length 0:00:03.00
Peak level 70.6 %
Extraction speed 5.2 X
Track quality 99.9 %
Test CRC 91D5707F
Copy CRC 91D5707F
Accurately ripped (confidence 1) [00E8A492] (AR v2)
Copy OK
Track 13
Filename Z:\#Torrents\Eigene\#EAC default\Lalo Schifrin - There's A Whole Lalo Schifrin Goin' On (1968) [FLAC]\13 - Self-destruct (Bonus track).wav
Pre-gap length 0:00:02.00
Peak level 97.8 %
Extraction speed 6.8 X
Track quality 100.0 %
Test CRC A9EE0924
Copy CRC A9EE0924
Accurately ripped (confidence 1) [16545F3C] (AR v2)
Copy OK
Track 14
Filename Z:\#Torrents\Eigene\#EAC default\Lalo Schifrin - There's A Whole Lalo Schifrin Goin' On (1968) [FLAC]\14 - Another side of Harry (Bonus track).wav
Pre-gap length 0:00:02.00
Peak level 82.3 %
Extraction speed 6.8 X
Track quality 100.0 %
Test CRC BE8EF44E
Copy CRC BE8EF44E
Accurately ripped (confidence 1) [5DAC9B77] (AR v2)
Copy OK
Track 15
Filename Z:\#Torrents\Eigene\#EAC default\Lalo Schifrin - There's A Whole Lalo Schifrin Goin' On (1968) [FLAC]\15 - Blues a go-go (Bonus track).wav
Pre-gap length 0:00:02.00
Peak level 65.0 %
Extraction speed 7.2 X
Track quality 100.0 %
Test CRC 61ED46D6
Copy CRC 61ED46D6
Accurately ripped (confidence 1) [145C76A2] (AR v2)
Copy OK
All tracks accurately ripped
No errors occurred
End of status report
---- CUETools DB Plugin V2.1.3
[CTDB TOCID: EkE79SMEeREVqczJkyu.6oqF_kM-] found, Submit result: EkE79SMEeREVqczJkyu.6oqF_kM- has been confirmed
[5a49433d] (2/5) Differs in 389 samples @25:51:00,30:06:18
[b6496ae7] (3/5) Accurately ripped
You can use CUETools to repair this rip.
==== Log checksum F362689B4A1805D6CBE034D79E61EB4965C604C354C852A7FD8D652D5A3B17B7 ====
 
Содержание индексной карты (.CUE)
REM GENRE Jazz
REM DATE 1968
REM DISCID B4096F0F
REM COMMENT "ExactAudioCopy V1.0b3"
PERFORMER "Lalo Schifrin"
TITLE "There's A Whole Lalo Schifrin Goin' On"
FILE "01. Secret Code Synthesizer.flac" WAVE
TRACK 01 AUDIO
TITLE "Secret Code Synthesizer"
PERFORMER "Lalo Schifrin"
INDEX 01 00:00:00
TRACK 02 AUDIO
TITLE "Dissolving"
PERFORMER "Lalo Schifrin"
INDEX 00 02:29:32
FILE "02. Dissolving.flac" WAVE
INDEX 01 00:00:00
TRACK 03 AUDIO
TITLE "Machinations"
PERFORMER "Lalo Schifrin"
INDEX 00 02:30:70
FILE "03. Machinations.flac" WAVE
INDEX 01 00:00:00
TRACK 04 AUDIO
TITLE "Bride Of The Wind"
PERFORMER "Lalo Schifrin"
INDEX 00 02:43:07
FILE "04. Bride Of The Wind.flac" WAVE
INDEX 01 00:00:00
TRACK 05 AUDIO
TITLE "Life Insurance"
PERFORMER "Lalo Schifrin"
INDEX 00 02:36:72
FILE "05. Life Insurance.flac" WAVE
INDEX 01 00:00:00
TRACK 06 AUDIO
TITLE "How To Open At Will The Most Beautiful Window"
PERFORMER "Lalo Schifrin"
INDEX 00 02:07:72
FILE "06. How To Open At Will The Most Beautiful Window.flac" WAVE
INDEX 01 00:00:00
TRACK 07 AUDIO
TITLE "Vaccinated Mushrooms"
PERFORMER "Lalo Schifrin"
INDEX 00 03:01:31
FILE "07. Vaccinated Mushrooms.flac" WAVE
INDEX 01 00:00:00
TRACK 08 AUDIO
TITLE "Two Petals, A Flower And A Young Girl"
PERFORMER "Lalo Schifrin"
INDEX 00 02:14:20
FILE "08. Two Petals, A Flower And A Young Girl.flac" WAVE
INDEX 01 00:00:00
TRACK 09 AUDIO
TITLE "Wheat Germ Landscapes"
PERFORMER "Lalo Schifrin"
INDEX 00 02:43:05
FILE "09. Wheat Germ Landscapes.flac" WAVE
INDEX 01 00:00:00
TRACK 10 AUDIO
TITLE "Gentle Earthquake"
PERFORMER "Lalo Schifrin"
INDEX 00 02:42:54
FILE "10. Gentle Earthquake.flac" WAVE
INDEX 01 00:00:00
TRACK 11 AUDIO
TITLE "Hawks Versus Doves"
PERFORMER "Lalo Schifrin"
INDEX 00 03:30:21
FILE "11. Hawks Versus Doves.flac" WAVE
INDEX 01 00:00:00
TRACK 12 AUDIO
TITLE "Lucille (Bonus track)"
PERFORMER "Lalo Schifrin"
INDEX 00 02:26:12
FILE "12. Lucille (Bonus track).flac" WAVE
INDEX 01 00:00:00
TRACK 13 AUDIO
TITLE "Self-destruct (Bonus track)"
PERFORMER "Lalo Schifrin"
INDEX 00 02:43:48
FILE "13. Self-destruct (Bonus track).flac" WAVE
INDEX 01 00:00:00
TRACK 14 AUDIO
TITLE "Another Side Of Harry (Bonus track)"
PERFORMER "Lalo Schifrin"
INDEX 00 02:37:70
FILE "14. Another Side Of Harry (Bonus track).flac" WAVE
INDEX 01 00:00:00
TRACK 15 AUDIO
TITLE "Blues A Go-go (Bonus track)"
PERFORMER "Lalo Schifrin"
INDEX 00 02:26:07
FILE "15. Blues A Go-go (Bonus track).flac" WAVE
INDEX 01 00:00:00
 
Об альбоме (сборнике)
Though it may seem unlikely that Frank Zappa had much of an influence on the work of Lalo Schifrin, one can detect some cultural crossover on There's a Whole Lalo Schifrin Goin' On. Schifrin was as much a jazz-pop genius as ever, but on this album rock rhythms, musical satire, sound effects, and exotica are all used as camp in a way that is eerily reminiscent of Zappa's more thoughtful efforts. Schifrin being Schifrin, every cut has a distinct and catchy melody, but there are whimsical and satirical themes embedded in the music. Nowhere is this more obvious than in "Hawks Vs. Doves," in which a cheery carnival-like theme is played in counterpoint to a martial air, each interfering with the other.
Elsewhere, Schifrin uses unusual percussion, dissonance, and tense, sonically fragmented piano to create soundscapes that are unlike most of the rest of his work. "Secret Code" integrates tabla drums, not a common instrument in American jazz of the time, with a cold, flute-like synthesizer – probably the first time those two instruments were used together. This album was ahead of its time in terms of instrumentation, but was a product of its time in that established ways of doing things were being challenged. Fans of Lalo Schifrin's work will find this to rank with his best, and those not familiar with anything but the Mission Impossible theme will be drawn in further by the eccentric genius displayed here. Note: Like many of Schifrin's albums of the period, there is no listing of musicians on the album cover, so it is difficult to know who is responsible for the marvelous performances here, except for Schifrin's own contributions.
 
Состав
Lalo Schifrin - piano, synthesizer, arranger, conductor
Tony Terran, John Audino - trumpet
Lloyd Ulyate, Barrett O'Hara - trombone
John Johnson - tuba
Vincent DeRosa - horn
Bud Shank, Ronnie Lang, Sam Most - reeds
Arnold Kobentz - oboe, English horn
Ralph Grierson, Artie Kane, Roger Kellaway, Mike Lang - keyboards
Paul Beaver - keyboards, synthesizer, stereo harp
Carl Fortina - accordion
Howard Roberts, Dennis Budimer, Bill Pitman, Louis Morell - guitar
James Bond, Ray Brown - bass
Carol Kaye, Max Bennett - electric bass
Shelly Manne - drums, percussion
Earl Palmer, Ken Watson, Joe Porcaro, Emil Richards - percussion
Milt Holland - tabla
Bonnie Douglas, Sam Freed, Anatol Kaminsky, Nathan Kaproff, George Kast, Marvin Limonick, Erno Neufeld, Paul Shure - violin
Myra Kestenbaum, Allan Harshman, Robert Ostrowsky, Virginia Majewski - viola
Raphael Kramer, Edgar Lustgarten, Eleanor Slatkin - cello
Catherine Gotthoffer - harp
Robert Helfer - orchestra manager
23:48
276
Нет комментариев. Ваш будет первым!