Поиск

(Free Jazz) [CDR] Don Cherry - Relativity Suite - 1973, FLAC (tracks+.cue), lossless

(Free Jazz) [CDR] Don Cherry - Relativity Suite - 1973, FLAC (tracks+.cue), lossless
Don Cherry - Relativity Suite Жанр: Free Jazz
Носитель: CDR
Год издания: 1973
Издатель (лейбл): JCOA Records/Trio Records Japan
Номер по каталогу: PA 7069
Аудиокодек: FLAC (*.flac)
Тип рипа: tracks+.cue
Битрейт аудио: lossless
Продолжительность: 33:22
Источник (релизер): ruskaval
Наличие сканов в содержимом раздачи: да
Треклист:
01. Tantra (7:58)
02. Mali Doussn'gouni (5:37)
03. Desireless (1:25)
04. The Queen Of Tung-Ting Lake (4:32)
05. Trans-Love Airways (6:48)
06. Infinite Gentleness (3:24)
07. March Of The Hobbits (3:37)
 
 
Состав
Don Cherry - composer, conductor, trumpet, conch, voice, percussion
Charles Brackeen – soprano saxophone, alto saxophone, voice
Carlos Ward – alto saxophone, voice
Frank Lowe – tenor sax, voice
Dewey Redman – tenor sax, voice
Sharon Freeman – French horn
Brian Trentham – trombone
Jack Jeffers – tuba
Leroy Jenkins – violin
Joan Kalisch – viola
Nan Newton – viola
Pat Dixon – cello
Jane Robertson – cello
Charlie Haden – bass
Carla Bley – piano
Ed Blackwell – drums
Paul Motian - percussion
Moki Cherry – tambura
Selene Fung – ching
Recorded: February 14, 1973 NYC
 
Об альбоме (сборнике)
One of Don Cherry's most spiritual, far-reaching projects – a wonderful record that builds both on his key avant work of the 60s, and some of the globally-inspired sounds he was cutting overseas! This date was done in close collaboration with the New York underground of the time – and the large group features work from a rich array of great musicians – including Charles Brackeen on soprano and alto sax, Carlos Ward on alto, Frank Lowe and Dewey Redman on tenors, Charlie Haden on bass, Carla Bley on piano, and Ed Blackwell on drums – working with additional string and percussion players in a sound that's completely sublime! There's a great ear here for unusual sonic twists and turns, yet these are mixed with some deeper organic tones, and some freer jazz passages – all to really ignite a great fire as the set rolls on.
Don Cherry appeared on the first two releases by JCOA, albums under the leadership of label founders Carla Bley and Michael Mantler, so their decision to commission him for the third album seemed a wise move, as indeed it was. Using many of the same musicians who contributed to those records and were then established as the loose collective called the Jazz Composer's Orchestra, Cherry molded into a suite a string of the pieces he'd been composing and performing in the previous few years. Under the tutelage of Pandit Pran Nath, Cherry had been studying and increasingly using Indian karnatic singing in his recordings and concerts; he begins this album with a similarly derived chant. As the energy heats up, the orchestra launches into the captivating "Mali Doussn'gouni," featuring a raging tenor solo by Frank Lowe and delightful vocal acrobatics by Cherry. When it slowly dissolves into his achingly beautiful "Desireless," the first half of the album comes to an extremely satisfying conclusion. The remainder of the session is somewhat more of a mixed bag, succeeding off and on. Highlights include Selene Fung's lovely work on the ching, a Chinese koto-like instrument, and Ed Blackwell's exuberant New Orleans marching patterns on the concluding number. While not as breathtaking or cohesive as his Eternal Rhythm, Relativity Suite almost matches that release in its first half and contains many a worthwhile joy.
 
Nota bene
Вот что написал оригинальный релизёр в комментарии к этому рипу:
Not too sure about the provenance of this CD but it did come from a respected supplier. Anyway it's a clean rip and sounds great!
 
 
Лог создания рипа
Exact Audio Copy V0.99 prebeta 4 from 23. January 2008
EAC extraction logfile from 17. December 2009, 8:44
Don Cherry / Relativity Suite
Used drive : _NEC DVD_RW ND-3520A Adapter: 1 ID: 0
Read mode : Secure
Utilize accurate stream : Yes
Defeat audio cache : Yes
Make use of C2 pointers : No
Read offset correction : 48
Overread into Lead-In and Lead-Out : No
Fill up missing offset samples with silence : Yes
Delete leading and trailing silent blocks : No
Null samples used in CRC calculations : Yes
Used interface : Installed external ASPI interface
Gap handling : Appended to previous track
Used output format : User Defined Encoder
Selected bitrate : 1024 kBit/s
Quality : High
Add ID3 tag : No
Command line compressor : C:\Program Files\FLAC\flac.exe
Additional command line options : -8 -V -T "ARTIST=%a" -T "TITLE=%t" -T "ALBUM=%g" -T "DATE=%y" -T "TRACKNUMBER=%n" -T "GENRE=%m" -T "COMMENT=EAC FLAC -8" %s
TOC of the extracted CD
Track | Start | Length | Start sector | End sector
---------------------------------------------------------
1 | 0:00.00 | 7:58.13 | 0 | 35862
2 | 7:58.13 | 5:37.03 | 35863 | 61140
3 | 13:35.16 | 1:25.28 | 61141 | 67543
4 | 15:00.44 | 4:32.05 | 67544 | 87948
5 | 19:32.49 | 6:48.14 | 87949 | 118562
6 | 26:20.63 | 3:23.54 | 118563 | 133841
7 | 29:44.42 | 3:37.08 | 133842 | 150124
Track 1
Filename C:\Documents and Settings\All Users\Documents\Uploads\Ex\Don Cherry - Relativity Suite (1970) [FLAC]\01 - Tantra.wav
Pre-gap length 0:00:02.00
Peak level 84.2 %
Track quality 99.9 %
Test CRC 99EFF1C9
Copy CRC 99EFF1C9
Track not present in AccurateRip database
Copy OK
Track 2
Filename C:\Documents and Settings\All Users\Documents\Uploads\Ex\Don Cherry - Relativity Suite (1970) [FLAC]\02 - Mali Doussn'gouni.wav
Peak level 81.1 %
Track quality 99.9 %
Test CRC 402D1871
Copy CRC 402D1871
Track not present in AccurateRip database
Copy OK
Track 3
Filename C:\Documents and Settings\All Users\Documents\Uploads\Ex\Don Cherry - Relativity Suite (1970) [FLAC]\03 - Desireless.wav
Peak level 61.0 %
Track quality 100.0 %
Test CRC DBC807DB
Copy CRC DBC807DB
Track not present in AccurateRip database
Copy OK
Track 4
Filename C:\Documents and Settings\All Users\Documents\Uploads\Ex\Don Cherry - Relativity Suite (1970) [FLAC]\04 - The Queen Of Tung-Ting Lake.wav
Peak level 79.1 %
Track quality 100.0 %
Test CRC A5877087
Copy CRC A5877087
Track not present in AccurateRip database
Copy OK
Track 5
Filename C:\Documents and Settings\All Users\Documents\Uploads\Ex\Don Cherry - Relativity Suite (1970) [FLAC]\05 - Trans-Love Airways.wav
Peak level 85.7 %
Track quality 100.0 %
Test CRC B26EE61A
Copy CRC B26EE61A
Track not present in AccurateRip database
Copy OK
Track 6
Filename C:\Documents and Settings\All Users\Documents\Uploads\Ex\Don Cherry - Relativity Suite (1970) [FLAC]\06 - Infinite Gentleness.wav
Peak level 97.7 %
Track quality 100.0 %
Test CRC A4EB4592
Copy CRC A4EB4592
Track not present in AccurateRip database
Copy OK
Track 7
Filename C:\Documents and Settings\All Users\Documents\Uploads\Ex\Don Cherry - Relativity Suite (1970) [FLAC]\07 - March Of The Hobbits.wav
Peak level 91.8 %
Track quality 100.0 %
Test CRC D6625E04
Copy CRC D6625E04
Track not present in AccurateRip database
Copy OK
None of the tracks are present in the AccurateRip database
No errors occurred
End of status report
 
Содержание индексной карты (.CUE)
REM GENRE Jazz
REM DATE 1973
REM DISCID 5C07D107
REM COMMENT "ExactAudioCopy v0.99pb4"
PERFORMER "Don Cherry"
TITLE "Relativity Suite"
FILE "01 - Tantra.wav" WAVE
TRACK 01 AUDIO
TITLE "Tantra"
PERFORMER "Don Cherry"
FLAGS DCP
INDEX 01 00:00:00
FILE "02 - Mali Doussn'gouni.wav" WAVE
TRACK 02 AUDIO
TITLE "Mali Doussn'gouni"
PERFORMER "Don Cherry"
FLAGS DCP
INDEX 01 00:00:00
FILE "03 - Desireless.wav" WAVE
TRACK 03 AUDIO
TITLE "Desireless"
PERFORMER "Don Cherry"
FLAGS DCP
INDEX 01 00:00:00
FILE "04 - The Queen Of Tung-Ting Lake.wav" WAVE
TRACK 04 AUDIO
TITLE "The Queen Of Tung-Ting Lake"
PERFORMER "Don Cherry"
FLAGS DCP
INDEX 01 00:00:00
FILE "05 - Trans-Love Airways.wav" WAVE
TRACK 05 AUDIO
TITLE "Trans-Love Airways"
PERFORMER "Don Cherry"
FLAGS DCP
INDEX 01 00:00:00
FILE "06 - Infinite Gentleness.wav" WAVE
TRACK 06 AUDIO
TITLE "Infinite Gentleness"
PERFORMER "Don Cherry"
FLAGS DCP
INDEX 01 00:00:00
FILE "07 - March Of The Hobbits.wav" WAVE
TRACK 07 AUDIO
TITLE "March Of The Hobbits"
PERFORMER "Don Cherry"
FLAGS DCP
INDEX 01 00:00:00
23:47
372
Нет комментариев. Ваш будет первым!