Поиск

(world fusion) [CD] Fairy Tale Trio (Theodosii Spassov/Anatoly Vapirov/Stoyan Yankulov) - Jazz Across The Border - 1998, FLAC (image+.cue), lossless

(world fusion) [CD] Fairy Tale Trio (Theodosii Spassov/Anatoly Vapirov/Stoyan Yankulov) - Jazz Across The Border - 1998, FLAC (image+.cue), lossless
Треклист:
Fairy Tale Trio (Theodosii Spassov/Anatoly Vapirov/Stoyan Yankulov) / Jazz Across The Border
Жанр: world fusion
Носитель: CD
Страна-производитель диска (релиза): Germany
Год издания: 1998
Издатель (лейбл): WERGO
Номер по каталогу: SM 1531-2
Аудиокодек: FLAC (*.flac)
Тип рипа: image+.cue
Битрейт аудио: lossless
Продолжительность: 52:21
Источник (релизер): itr
Наличие сканов в содержимом раздачи: да
Треклист:
01. Karandila (Theodosii Spassov/Anatoly Vapirov/Stoyan Yankulov) 5:18
02. Lastuna (Theodosii Spassov/Anatoly Vapirov/Stoyan Yankulov) 2:02
03. The House Behind the River (Theodosii Spassov/Anatoly Vapirov/Stoyan Yankulov) 7:14
04. Cadence in Green (Theodosii Spassov/Anatoly Vapirov/Stoyan Yankulov) 2:33
05. Samotek (Theodosii Spassov/Anatoly Vapirov/Stoyan Yankulov) 7:45
06. Sun Sanuvah (Theodosii Spassov/Anatoly Vapirov/Stoyan Yankulov) 5:43
07. Chorovod (Theodosii Spassov/Anatoly Vapirov/Stoyan Yankulov) 2:24
08. Marvellous Pig Stories (Theodosii Spassov/Anatoly Vapirov/Stoyan Yankulov) 4:08
09. Shepherd's Baroque (Theodosii Spassov/Anatoly Vapirov/Stoyan Yankulov) 3:02
10. Gornjak (Theodosii Spassov/Anatoly Vapirov/Stoyan Yankulov) 4:16
11. Shúma (Ljobomir Pipkow) 7:50
 
Лог создания рипа
Exact Audio Copy V1.0 beta 3 from 29. August 2011
EAC extraction logfile from 26. August 2014, 13:07
Fairy Tale Trio / Jazz Across The Border
Used drive : Optiarc DVD RW AD-7250H Adapter: 1 ID: 0
Read mode : Secure
Utilize accurate stream : Yes
Defeat audio cache : No
Make use of C2 pointers : No
Read offset correction : 48
Overread into Lead-In and Lead-Out : No
Fill up missing offset samples with silence : Yes
Delete leading and trailing silent blocks : No
Null samples used in CRC calculations : Yes
Used interface : Native Win32 interface for Win NT & 2000
Used output format : User Defined Encoder
Selected bitrate : 768 kBit/s
Quality : High
Add ID3 tag : No
Command line compressor : C:\Program Files (x86)\Exact Audio Copy\FLAC\FLAC.EXE
Additional command line options : -6 -V -T "ARTIST=%artist%" -T "TITLE=%title%" -T "ALBUM=%albumtitle%" -T "DATE=%year%" -T "TRACKNUMBER=%tracknr%" -T "GENRE=%genre%" -T "COMMENT=%comment%" -T "BAND=%albuminterpret%" -T "ALBUMARTIST=%albuminterpret%" -T "COMPOSER=%composer%" %haslyrics%--tag-from-file=LYRICS="%lyricsfile%"%haslyrics% -T "DISCNUMBER=%cdnumber%" -T "TOTALDISCS=%totalcds%" -T "TOTALTRACKS=%numtracks%" %hascover%--picture="%coverfile%"%hascover% %source% -o %dest%
TOC of the extracted CD
Track | Start | Length | Start sector | End sector
---------------------------------------------------------
1 | 0:00.00 | 5:18.72 | 0 | 23921
2 | 5:18.72 | 2:02.28 | 23922 | 33099
3 | 7:21.25 | 7:14.52 | 33100 | 65701
4 | 14:36.02 | 2:33.52 | 65702 | 77228
5 | 17:09.54 | 7:45.41 | 77229 | 112144
6 | 24:55.20 | 5:43.22 | 112145 | 137891
7 | 30:38.42 | 2:24.60 | 137892 | 148751
8 | 33:03.27 | 4:08.20 | 148752 | 167371
9 | 37:11.47 | 3:02.20 | 167372 | 181041
10 | 40:13.67 | 4:16.68 | 181042 | 200309
11 | 44:30.60 | 7:50.40 | 200310 | 235599
Range status and errors
Selected range
Filename C:\Users\Zoli\Music\Rip\Fairy Tale Trio - Jazz Across The Border\Fairy Tale Trio - Jazz Across The Border.wav
Peak level 99.9 %
Extraction speed 6.2 X
Range quality 100.0 %
Copy CRC EF25DBC5
Copy OK
No errors occurred
AccurateRip summary
Track 1 accurately ripped (confidence 3) [F7FD8912] (AR v1)
Track 2 accurately ripped (confidence 3) [D40B1AA0] (AR v1)
Track 3 accurately ripped (confidence 3) [2E792248] (AR v1)
Track 4 accurately ripped (confidence 3) [43294B7F] (AR v1)
Track 5 accurately ripped (confidence 3) [6244B37C] (AR v1)
Track 6 accurately ripped (confidence 2) [5EB723FE] (AR v1)
Track 7 accurately ripped (confidence 3) [349EB052] (AR v1)
Track 8 accurately ripped (confidence 3) [124266DF] (AR v1)
Track 9 accurately ripped (confidence 3) [6283F24A] (AR v1)
Track 10 accurately ripped (confidence 3) [3525567F] (AR v1)
Track 11 accurately ripped (confidence 3) [CA55A7CB] (AR v1)
All tracks accurately ripped
End of status report
 
Содержание индексной карты (.CUE)
REM GENRE Jazz
REM DATE 1998
REM DISCID 8E0C450B
REM COMMENT "ExactAudioCopy v1.0b3"
PERFORMER "Fairy Tale Trio"
TITLE "Jazz Across The Border"
FILE "Fairy Tale Trio - Jazz Across The Border.flac" WAVE
TRACK 01 AUDIO
TITLE "Karandila"
PERFORMER "Fairy Tale Trio"
INDEX 01 00:00:00
TRACK 02 AUDIO
TITLE "Lastuna"
PERFORMER "Fairy Tale Trio"
INDEX 00 05:16:32
INDEX 01 05:18:72
TRACK 03 AUDIO
TITLE "The House Behind the River"
PERFORMER "Fairy Tale Trio"
INDEX 00 07:19:60
INDEX 01 07:21:25
TRACK 04 AUDIO
TITLE "Cadence in Green"
PERFORMER "Fairy Tale Trio"
INDEX 01 14:36:02
TRACK 05 AUDIO
TITLE "Samotek"
PERFORMER "Fairy Tale Trio"
INDEX 01 17:09:54
TRACK 06 AUDIO
TITLE "Sun Sanuvah"
PERFORMER "Fairy Tale Trio"
INDEX 00 24:52:52
INDEX 01 24:55:20
TRACK 07 AUDIO
TITLE "Chorovod"
PERFORMER "Fairy Tale Trio"
INDEX 00 30:36:00
INDEX 01 30:38:42
TRACK 08 AUDIO
TITLE "Marvellous Pig Stories"
PERFORMER "Fairy Tale Trio"
INDEX 00 33:01:62
INDEX 01 33:03:27
TRACK 09 AUDIO
TITLE "Shepherd's Baroque"
PERFORMER "Fairy Tale Trio"
INDEX 00 37:09:10
INDEX 01 37:11:47
TRACK 10 AUDIO
TITLE "Gornjak"
PERFORMER "Fairy Tale Trio"
INDEX 00 40:11:27
INDEX 01 40:13:67
TRACK 11 AUDIO
TITLE "Shuma"
PERFORMER "Fairy Tale Trio"
INDEX 00 44:28:20
INDEX 01 44:30:60
 
Лог проверки качества
-----------------------
DON'T MODIFY THIS FILE
-----------------------
PERFORMER: auCDtect Task Manager, ver. 1.6.0 RC1 build 1.6.0.1
Copyright (c) 2008-2010 y-soft. All rights reserved
http://y-soft.org
ANALYZER: auCDtect: CD records authenticity detector, version 0.8.2
Copyright (c) 2004 Oleg Berngardt. All rights reserved.
Copyright (c) 2004 Alexander Djourik. All rights reserved.
FILE: Fairy Tale Trio - Jazz Across The Border.flac
Size: 235036937 Hash: EE04FE0C5EAEBF26B146C32F01C1A507 Accuracy: -m0
Conclusion: CDDA 100%
Signature: A92A2E53D23BB7F71B27045C34F6AF1DA81E63FE
Доп. информация: Recorded at the Studios of Sender Freies Berlin, Berlin, Germany, 1998-06-22
 
Об альбоме (сборнике)
This is a Bulgarian trio of Theodosii Spassov on kaval, an end-blown Bulgarian flute, Russian ex-pat Anatoly Vapirov on soprano saxophone, and Stoyan Yankoulov on percussion. They play original jazz with a lot of Bulgarian influence and world music influence - for instance one of the tunes features the kind of vocalization that classical Indian tabla players make to call out rhythms. Spassov's kaval playing features extended techniques and is quite impressive!
 
Состав
Theodosii Spassov - Kaval and Voice
Anatoly Vapirov - Soprano Sax
Stoyan Yankulov - Tupan and Percussion
16:36
324
Нет комментариев. Ваш будет первым!