Поиск

(World Fusion) [CD] Baden Powell - Estudos (1971) - 1986, FLAC (tracks+.cue), lossless

(World Fusion) [CD] Baden Powell - Estudos (1971) - 1986, FLAC (tracks+.cue), lossless
Треклист:
Baden Powell - Estudos (1971)
Жанр: World Fusion
Носитель: CD
Год издания: 1986
Издатель (лейбл): Polygram/MPS records
Номер по каталогу: 821 855-2
Аудиокодек: FLAC (*.flac)
Тип рипа: tracks+.cue
Битрейт аудио: lossless
Продолжительность: 42:15
Источник (релизер): TestTickles
Наличие сканов в содержимом раздачи: да
Треклист:
01. Encosta pra ve se da (3:12)
02. Pra valer (3:00)
03. Pai (3:19)
04. Serenata do adeus (4:24)
05. Tapiilraiauara (3:39)
06. Valsa sem nome (2:41)
07. E isso al (1:55)
08. Chao de estrelas (3:25)
09. Crepusculo (3:36)
10. Tema triste (4:32)
11. Baixo de pau (2:49)
12. Ultimo porto (5:43)
 
 
Лог создания рипа
EAC extraction logfile from 16. October 2006, 17:34 for CD
Baden Powell / Estudos
Used drive : PLEXTOR DVDR PX-708A Adapter: 0 ID: 0
Read mode : Secure with NO C2, accurate stream, disable cache
Read offset correction : 30
Overread into Lead-In and Lead-Out : Yes
Used output format : C:\Program Files\FLAC\flac.exe (User Defined Encoder)
320 kBit/s
Additional command line options : -V -8 -T "artist=%a" -T "title=%t" -T "album=%g" -T "date=%y" -T "tracknumber=%n" -T "genre=%m" %s
Other options :
Fill up missing offset samples with silence : Yes
Delete leading and trailing silent blocks : No
Installed external ASPI interface
Track 1
Filename C:\FLAC\Baden Powell - Estudos (1971) [FLAC] {1986 W. Germany Polygram CD}\01 - Encosta pra ve se da.wav
Pre-gap length 0:00:02.42
Peak level 76.0 %
Track quality 99.9 %
Test CRC 52057E8D
Copy CRC 52057E8D
Copy OK
Track 2
Filename C:\FLAC\Baden Powell - Estudos (1971) [FLAC] {1986 W. Germany Polygram CD}\02 - Pra valer.wav
Pre-gap length 0:00:04.77
Peak level 56.8 %
Track quality 100.0 %
Test CRC FF19D2B7
Copy CRC FF19D2B7
Copy OK
Track 3
Filename C:\FLAC\Baden Powell - Estudos (1971) [FLAC] {1986 W. Germany Polygram CD}\03 - pai.wav
Pre-gap length 0:00:05.41
Peak level 92.6 %
Track quality 100.0 %
Test CRC E4564605
Copy CRC E4564605
Copy OK
Track 4
Filename C:\FLAC\Baden Powell - Estudos (1971) [FLAC] {1986 W. Germany Polygram CD}\04 - Serenata do adeus.wav
Pre-gap length 0:00:03.49
Peak level 55.3 %
Track quality 100.0 %
Test CRC 3382C582
Copy CRC 3382C582
Copy OK
Track 5
Filename C:\FLAC\Baden Powell - Estudos (1971) [FLAC] {1986 W. Germany Polygram CD}\05 - Tapiilraiauara.wav
Pre-gap length 0:00:03.88
Peak level 63.7 %
Track quality 100.0 %
Test CRC 6B343DD8
Copy CRC 6B343DD8
Copy OK
Track 6
Filename C:\FLAC\Baden Powell - Estudos (1971) [FLAC] {1986 W. Germany Polygram CD}\06 - Valsa sem nome.wav
Pre-gap length 0:00:04.44
Peak level 46.9 %
Track quality 100.0 %
Test CRC 10B21209
Copy CRC 10B21209
Copy OK
Track 7
Filename C:\FLAC\Baden Powell - Estudos (1971) [FLAC] {1986 W. Germany Polygram CD}\07 - E isso al.wav
Pre-gap length 0:00:03.65
Peak level 76.5 %
Track quality 99.9 %
Test CRC B9A233AD
Copy CRC B9A233AD
Copy OK
Track 8
Filename C:\FLAC\Baden Powell - Estudos (1971) [FLAC] {1986 W. Germany Polygram CD}\08 - Chao de estrelas.wav
Pre-gap length 0:00:03.94
Peak level 50.3 %
Track quality 99.9 %
Test CRC 588B1B95
Copy CRC 588B1B95
Copy OK
Track 9
Filename C:\FLAC\Baden Powell - Estudos (1971) [FLAC] {1986 W. Germany Polygram CD}\09 - Crepusculo.wav
Pre-gap length 0:00:03.90
Peak level 57.1 %
Track quality 100.0 %
Test CRC 860DE281
Copy CRC 860DE281
Copy OK
Track 10
Filename C:\FLAC\Baden Powell - Estudos (1971) [FLAC] {1986 W. Germany Polygram CD}\10 - Tema triste.wav
Pre-gap length 0:00:03.88
Peak level 46.6 %
Track quality 100.0 %
Test CRC 23F750C2
Copy CRC 23F750C2
Copy OK
Track 11
Filename C:\FLAC\Baden Powell - Estudos (1971) [FLAC] {1986 W. Germany Polygram CD}\11 - Baixo de pau.wav
Pre-gap length 0:00:03.96
Peak level 47.0 %
Track quality 100.0 %
Test CRC D21256EC
Copy CRC D21256EC
Copy OK
Track 12
Filename C:\FLAC\Baden Powell - Estudos (1971) [FLAC] {1986 W. Germany Polygram CD}\12 - Ultimo porto.wav
Pre-gap length 0:00:04.01
Peak level 67.4 %
Track quality 100.0 %
Test CRC 62DB5FF9
Copy CRC 62DB5FF9
Copy OK
No errors occured
End of status report
------------------------------------------------------------
 
Содержание индексной карты (.CUE)
REM GENRE Jazz
REM DATE 1971
REM DISCID 9A09E70C
REM COMMENT "ExactAudioCopy v0.95b4"
PERFORMER "Baden Powell"
TITLE "Estudos"
FILE "01 - Encosta pra ve se da.wav" WAVE
TRACK 01 AUDIO
TITLE "Encosta pra ve se da"
PERFORMER "Baden Powell"
PREGAP 00:00:32
INDEX 01 00:00:00
TRACK 02 AUDIO
TITLE "Pra valer"
PERFORMER "Baden Powell"
INDEX 00 03:07:37
FILE "02 - Pra valer.wav" WAVE
INDEX 01 00:00:00
TRACK 03 AUDIO
TITLE "Pai"
PERFORMER "Baden Powell"
INDEX 00 02:54:12
FILE "03 - Pai.wav" WAVE
INDEX 01 00:00:00
TRACK 04 AUDIO
TITLE "Serenata do adeus"
PERFORMER "Baden Powell"
INDEX 00 03:15:60
FILE "04 - Serenata do adeus.wav" WAVE
INDEX 01 00:00:00
TRACK 05 AUDIO
TITLE "Tapiilraiauara"
PERFORMER "Baden Powell"
INDEX 00 04:20:42
FILE "05 - Tapiilraiauara.wav" WAVE
INDEX 01 00:00:00
TRACK 06 AUDIO
TITLE "Valsa sem nome"
PERFORMER "Baden Powell"
INDEX 00 03:34:64
FILE "06 - Valsa sem nome.wav" WAVE
INDEX 01 00:00:00
TRACK 07 AUDIO
TITLE "E isso al"
PERFORMER "Baden Powell"
INDEX 00 02:36:66
FILE "07 - E isso al.wav" WAVE
INDEX 01 00:00:00
TRACK 08 AUDIO
TITLE "Chao de estrelas"
PERFORMER "Baden Powell"
INDEX 00 01:50:44
FILE "08 - Chao de estrelas.wav" WAVE
INDEX 01 00:00:00
TRACK 09 AUDIO
TITLE "Crepusculo"
PERFORMER "Baden Powell"
INDEX 00 03:21:20
FILE "09 - Crepusculo.wav" WAVE
INDEX 01 00:00:00
TRACK 10 AUDIO
TITLE "Tema triste"
PERFORMER "Baden Powell"
INDEX 00 03:32:14
FILE "10 - Tema triste.wav" WAVE
INDEX 01 00:00:00
TRACK 11 AUDIO
TITLE "Baixo de pau"
PERFORMER "Baden Powell"
INDEX 00 04:28:13
FILE "11 - Baixo de pau.wav" WAVE
INDEX 01 00:00:00
TRACK 12 AUDIO
TITLE "Ultimo porto"
PERFORMER "Baden Powell"
INDEX 00 02:45:06
FILE "12 - Ultimo porto.wav" WAVE
INDEX 01 00:00:00
20:44
465
Нет комментариев. Ваш будет первым!