Поиск

(World Fusion, Brazilian Jazz) Moacir Santos - Coisas - 2004, FLAC (tracks+.cue), lossless

(World Fusion, Brazilian Jazz) Moacir Santos - Coisas - 2004, FLAC (tracks+.cue), lossless
Треклист:
•Moacir Santos - Coisas•
Жанр: World Fusion, Brazilian Jazz
Год издания: 2004
Издатель (лейбл): Universal
Номер по каталогу: 325912006578
Аудиокодек: FLAC (*.flac)
Тип рипа: tracks+.cue
Битрейт аудио: lossless
Продолжительность: 00:31:52
Источник (релизер): user787878
Наличие сканов в содержимом раздачи: нет
Треклист:
01. Coisa nº 4 [04:02]
02. Coisa nº 10 [03:07]
03. Coisa nº 5 [02:46]
04. Coisa nº 3 [03:01]
05. Coisa nº 2 [04:55]
06. Coisa nº 9 [03:09]
07. Coisa nº 6 [03:22]
08. Coisa nº 7 (Quem é que Não Chora) [02:26]
09. Coisa nº 1 [02:41]
10. Coisa nº 8 (Navegação) [02:20]
 
Лог создания рипа
Exact Audio Copy V1.0 beta 3 from 29. August 2011
EAC extraction logfile from 23. July 2012, 19:32
Moacir Santos / Coisas
Used drive : LITE-ON DVDRW LH-20A1H Adapter: 2 ID: 0
Read mode : Secure
Utilize accurate stream : Yes
Defeat audio cache : Yes
Make use of C2 pointers : No
Read offset correction : 6
Overread into Lead-In and Lead-Out : No
Fill up missing offset samples with silence : Yes
Delete leading and trailing silent blocks : No
Null samples used in CRC calculations : Yes
Used interface : Native Win32 interface for Win NT & 2000
Gap handling : Appended to previous track
Used output format : User Defined Encoder
Selected bitrate : 1024 kBit/s
Quality : High
Add ID3 tag : No
Command line compressor : C:\Program Files\Exact Audio Copy\Flac\flac.exe
Additional command line options : -8 -V -T "ARTIST=%artist%" -T "TITLE=%title%" -T "ALBUM=%albumtitle%" -T "DATE=%year%" -T "TRACKNUMBER=%tracknr%" -T "GENRE=%genre%" -T "PERFORMER=%albuminterpret%" -T "COMPOSER=%composer%" %haslyrics%--tag-from-file=LYRICS="%lyricsfile%"%haslyrics% -T "ALBUMARTIST=%albumartist%" -T "DISCNUMBER=%cdnumber%" -T "TOTALDISCS=%totalcds%" -T "TOTALTRACKS=%numtracks%" -T "COMMENT=%comment%" %source% -o %dest%
TOC of the extracted CD
Track | Start | Length | Start sector | End sector
---------------------------------------------------------
1 | 0:00.00 | 4:03.62 | 0 | 18286
2 | 4:03.62 | 3:08.40 | 18287 | 32426
3 | 7:12.27 | 2:47.69 | 32427 | 45020
4 | 10:00.21 | 3:02.65 | 45021 | 58735
5 | 13:03.11 | 4:57.12 | 58736 | 81022
6 | 18:00.23 | 3:10.43 | 81023 | 95315
7 | 21:10.66 | 3:24.17 | 95316 | 110632
8 | 24:35.08 | 2:27.62 | 110633 | 121719
9 | 27:02.70 | 2:43.06 | 121720 | 133950
10 | 29:46.01 | 2:20.14 | 133951 | 144464
Track 1
Filename Y:\What Me\Moacir Santos - Coisas (1965) [FLAC]\01 - Coisa nº 4.wav
Pre-gap length 0:00:02.00
Peak level 96.9 %
Extraction speed 1.8 X
Track quality 100.0 %
Test CRC C6955F4E
Copy CRC C6955F4E
Track not present in AccurateRip database
Copy OK
Track 2
Filename Y:\What Me\Moacir Santos - Coisas (1965) [FLAC]\02 - Coisa nº 10.wav
Pre-gap length 0:00:01.50
Peak level 97.0 %
Extraction speed 1.7 X
Track quality 99.9 %
Test CRC 69FDC6AD
Copy CRC 69FDC6AD
Track not present in AccurateRip database
Copy OK
Track 3
Filename Y:\What Me\Moacir Santos - Coisas (1965) [FLAC]\03 - Coisa nº 5.wav
Pre-gap length 0:00:01.45
Peak level 97.0 %
Extraction speed 2.0 X
Track quality 100.0 %
Test CRC 24F8F473
Copy CRC 24F8F473
Track not present in AccurateRip database
Copy OK
Track 4
Filename Y:\What Me\Moacir Santos - Coisas (1965) [FLAC]\04 - Coisa nº 3.wav
Pre-gap length 0:00:01.54
Peak level 97.0 %
Extraction speed 2.2 X
Track quality 100.0 %
Test CRC 1D425D5C
Copy CRC 1D425D5C
Track not present in AccurateRip database
Copy OK
Track 5
Filename Y:\What Me\Moacir Santos - Coisas (1965) [FLAC]\05 - Coisa nº 2.wav
Pre-gap length 0:00:01.48
Peak level 97.0 %
Extraction speed 2.2 X
Track quality 99.9 %
Test CRC 0BBDD396
Copy CRC 0BBDD396
Track not present in AccurateRip database
Copy OK
Track 6
Filename Y:\What Me\Moacir Santos - Coisas (1965) [FLAC]\06 - Coisa nº 9.wav
Pre-gap length 0:00:01.41
Peak level 98.8 %
Extraction speed 2.0 X
Track quality 99.9 %
Test CRC 031FEDE4
Copy CRC 031FEDE4
Track not present in AccurateRip database
Copy OK
Track 7
Filename Y:\What Me\Moacir Santos - Coisas (1965) [FLAC]\07 - Coisa nº 6.wav
Pre-gap length 0:00:01.40
Peak level 97.1 %
Extraction speed 2.6 X
Track quality 100.0 %
Test CRC 56F50401
Copy CRC 56F50401
Track not present in AccurateRip database
Copy OK
Track 8
Filename Y:\What Me\Moacir Santos - Coisas (1965) [FLAC]\08 - Coisa nº 7 (Quem é que Não Chora).wav
Pre-gap length 0:00:01.50
Peak level 97.0 %
Extraction speed 2.6 X
Track quality 100.0 %
Test CRC D0038F7F
Copy CRC D0038F7F
Track not present in AccurateRip database
Copy OK
Track 9
Filename Y:\What Me\Moacir Santos - Coisas (1965) [FLAC]\09 - Coisa nº 1.wav
Pre-gap length 0:00:01.48
Peak level 97.1 %
Extraction speed 2.8 X
Track quality 100.0 %
Test CRC 9A1265CA
Copy CRC 9A1265CA
Track not present in AccurateRip database
Copy OK
Track 10
Filename Y:\What Me\Moacir Santos - Coisas (1965) [FLAC]\10 - Coisa nº 8 (Navegação).wav
Pre-gap length 0:00:01.60
Peak level 97.1 %
Extraction speed 2.7 X
Track quality 100.0 %
Test CRC 56C9E8BC
Copy CRC 56C9E8BC
Track not present in AccurateRip database
Copy OK
None of the tracks are present in the AccurateRip database
No errors occurred
End of status report
---- CUETools DB Plugin V2.1.3
[CTDB TOCID: 9qTX1viQfj_dWUiUZLIiSADWlgo-] disk not present in database, Submit result: 9qTX1viQfj_dWUiUZLIiSADWlgo- has been uploaded
==== Log checksum AF17430A3AB42DCC8145E872E9E7132F6D3EAEBC950F2AD07B0FC0FC2DE66621 ====
 
Содержание индексной карты (.CUE)
REM GENRE Latin
REM DATE 1965
REM DISCID 8307860A
REM COMMENT "ExactAudioCopy v1.0b3"
PERFORMER "Moacir Santos"
TITLE "Coisas"
FILE "01 - Coisa nº 4.wav" WAVE
TRACK 01 AUDIO
TITLE "Coisa nº 4"
PERFORMER "Moacir Santos"
ISRC 0@4007100000
INDEX 01 00:00:00
TRACK 02 AUDIO
TITLE "Coisa nº 10"
PERFORMER "Moacir Santos"
ISRC 0@4007100000
INDEX 00 04:02:24
FILE "02 - Coisa nº 10.wav" WAVE
INDEX 01 00:00:00
TRACK 03 AUDIO
TITLE "Coisa nº 5"
PERFORMER "Moacir Santos"
ISRC 0@4007100000
INDEX 00 03:07:06
FILE "03 - Coisa nº 5.wav" WAVE
INDEX 01 00:00:00
TRACK 04 AUDIO
TITLE "Coisa nº 3"
PERFORMER "Moacir Santos"
ISRC 0@4007100000
INDEX 00 02:46:28
FILE "04 - Coisa nº 3.wav" WAVE
INDEX 01 00:00:00
TRACK 05 AUDIO
TITLE "Coisa nº 2"
PERFORMER "Moacir Santos"
ISRC 0@4007100000
INDEX 00 03:01:29
FILE "05 - Coisa nº 2.wav" WAVE
INDEX 01 00:00:00
TRACK 06 AUDIO
TITLE "Coisa nº 9"
PERFORMER "Moacir Santos"
ISRC 0@4007100000
INDEX 00 04:55:56
FILE "06 - Coisa nº 9.wav" WAVE
INDEX 01 00:00:00
TRACK 07 AUDIO
TITLE "Coisa nº 6"
PERFORMER "Moacir Santos"
ISRC 0@4007100000
INDEX 00 03:09:13
FILE "07 - Coisa nº 6.wav" WAVE
INDEX 01 00:00:00
TRACK 08 AUDIO
TITLE "Coisa nº 7 (Quem é que Não Chora)"
PERFORMER "Moacir Santos"
ISRC 0@4007100000
INDEX 00 03:22:54
FILE "08 - Coisa nº 7 (Quem é que Não Chora).wav" WAVE
INDEX 01 00:00:00
TRACK 09 AUDIO
TITLE "Coisa nº 1"
PERFORMER "Moacir Santos"
ISRC 0@4007100000
INDEX 00 02:26:26
FILE "09 - Coisa nº 1.wav" WAVE
INDEX 01 00:00:00
TRACK 10 AUDIO
TITLE "Coisa nº 8 (Navegação)"
PERFORMER "Moacir Santos"
ISRC 0@4007100000
INDEX 00 02:41:36
FILE "10 - Coisa nº 8 (Navegação).wav" WAVE
INDEX 01 00:00:00
09:05
240
Нет комментариев. Ваш будет первым!