Поиск

(Latin Jazz, Brazilian Jazz, Bossa Nova) Rosa Passos & Ron Carter - Entre Amigos - 2003, FLAC (tracks+.cue), lossless

(Latin Jazz, Brazilian Jazz, Bossa Nova) Rosa Passos & Ron Carter - Entre Amigos - 2003, FLAC (tracks+.cue), lossless
Треклист:
Rosa Passos & Ron Carter – Entre Amigos
Жанр: Latin Jazz, Brazilian Jazz, Bossa Nova
Год издания: 2003
Издатель (лейбл): Chesky Records
Номер по каталогу: JD247
Аудиокодек: FLAC (*.flac)
Тип рипа: tracks+.cue
Битрейт аудио: lossless
Продолжительность: 51:51
Rip by tiburon
Сканы есть
Треклист:
01. Bahia Com H (3:39)
02. Insensatez (5:54)
03. Desafinado (4:47)
04. Sorriu Para Mim (3:58)
05. A Primeira Vez (4:09)
06. Garota De Ipanema (3:21)
07. Por Causa De Voce (4:30)
08. Caminhos Cruzados (6:30)
09. Feitio De Oracao (4:30)
10. Eu Sei Que Vou Te Amar (5:52)
11. O Grande Amor (4:41)
Personnel:
Rosa Passos - vo, g
Ron Carter - b
Lula Galvao- g
Paulo Braga - perc
Billy Drewes - ts, cl
 
 
Лог создания рипа
Exact Audio Copy V1.0 beta 3 from 29. August 2011
EAC extraction logfile from 4. February 2013, 19:29
Rosa Passos & Ron Carter / Entre Amigos
Used drive : HL-DT-STDVDRAM GH20NS10 Adapter: 2 ID: 1
Read mode : Secure
Utilize accurate stream : Yes
Defeat audio cache : Yes
Make use of C2 pointers : No
Read offset correction : 667
Overread into Lead-In and Lead-Out : No
Fill up missing offset samples with silence : Yes
Delete leading and trailing silent blocks : No
Null samples used in CRC calculations : Yes
Used interface : Native Win32 interface for Win NT & 2000
Gap handling : Appended to previous track
Used output format : User Defined Encoder
Selected bitrate : 1024 kBit/s
Quality : High
Add ID3 tag : No
Command line compressor : C:\Program Files\Exact Audio Copy\Flac\flac.exe
Additional command line options : -8 -V -T "ARTIST=%artist%" -T "TITLE=%title%" -T "ALBUM=%albumtitle%" -T "DATE=%year%" -T "TRACKNUMBER=%tracknr%" -T "TOTALTRACKS=%numtracks%" -T "GENRE=%genre%" -T "ALBUMARTIST=%albumartist%" -T "ALBUM ARTIST=%albumartist%" -T "COMMENT=EAC Secure Mode, Test & Copy, AccurateRip, FLAC -8" %source%
TOC of the extracted CD
Track | Start | Length | Start sector | End sector
---------------------------------------------------------
1 | 0:00.00 | 3:39.10 | 0 | 16434
2 | 3:39.10 | 5:54.00 | 16435 | 42984
3 | 9:33.10 | 4:47.00 | 42985 | 64509
4 | 14:20.10 | 3:58.00 | 64510 | 82359
5 | 18:18.10 | 4:09.37 | 82360 | 101071
6 | 22:27.47 | 3:20.38 | 101072 | 116109
7 | 25:48.10 | 4:30.00 | 116110 | 136359
8 | 30:18.10 | 6:30.00 | 136360 | 165609
9 | 36:48.10 | 4:30.37 | 165610 | 185896
10 | 41:18.47 | 5:51.38 | 185897 | 212259
11 | 47:10.10 | 4:41.20 | 212260 | 233354
Track 1
Filename D:\Rosa Passos & Ron Carter - Entre Amigos (2003) [FLAC]\01 - Bahia Com H.wav
Pre-gap length 0:00:02.00
Peak level 98.5 %
Extraction speed 3.7 X
Track quality 99.9 %
Test CRC DACFBABF
Copy CRC DACFBABF
Accurately ripped (confidence 5) [0F2C5874] (AR v2)
Copy OK
Track 2
Filename D:\Rosa Passos & Ron Carter - Entre Amigos (2003) [FLAC]\02 - Insensatez.wav
Peak level 87.9 %
Extraction speed 5.4 X
Track quality 100.0 %
Test CRC 034290BD
Copy CRC 034290BD
Accurately ripped (confidence 5) [7847B360] (AR v2)
Copy OK
Track 3
Filename D:\Rosa Passos & Ron Carter - Entre Amigos (2003) [FLAC]\03 - Desafinado.wav
Peak level 98.5 %
Extraction speed 5.8 X
Track quality 100.0 %
Test CRC C3F9ADAA
Copy CRC C3F9ADAA
Accurately ripped (confidence 5) [C1E50460] (AR v2)
Copy OK
Track 4
Filename D:\Rosa Passos & Ron Carter - Entre Amigos (2003) [FLAC]\04 - Sorriu Para Mim.wav
Peak level 98.4 %
Extraction speed 5.9 X
Track quality 100.0 %
Test CRC 9B9956F6
Copy CRC 9B9956F6
Accurately ripped (confidence 5) [DA89817E] (AR v2)
Copy OK
Track 5
Filename D:\Rosa Passos & Ron Carter - Entre Amigos (2003) [FLAC]\05 - A Primeira Vez.wav
Peak level 67.4 %
Extraction speed 6.4 X
Track quality 100.0 %
Test CRC F52B4924
Copy CRC F52B4924
Accurately ripped (confidence 5) [69094C3E] (AR v2)
Copy OK
Track 6
Filename D:\Rosa Passos & Ron Carter - Entre Amigos (2003) [FLAC]\06 - Garota De Ipanema.wav
Peak level 86.9 %
Extraction speed 5.1 X
Track quality 99.9 %
Test CRC 5F729296
Copy CRC 5F729296
Accurately ripped (confidence 5) [BC179183] (AR v2)
Copy OK
Track 7
Filename D:\Rosa Passos & Ron Carter - Entre Amigos (2003) [FLAC]\07 - Por Causa De Voce.wav
Peak level 98.3 %
Extraction speed 6.9 X
Track quality 100.0 %
Test CRC 84E40CE5
Copy CRC 84E40CE5
Accurately ripped (confidence 5) [EE311A3E] (AR v2)
Copy OK
Track 8
Filename D:\Rosa Passos & Ron Carter - Entre Amigos (2003) [FLAC]\08 - Caminhos Cruzados.wav
Peak level 78.1 %
Extraction speed 7.5 X
Track quality 100.0 %
Test CRC FDC5C5D7
Copy CRC FDC5C5D7
Accurately ripped (confidence 5) [FD3A8EE9] (AR v2)
Copy OK
Track 9
Filename D:\Rosa Passos & Ron Carter - Entre Amigos (2003) [FLAC]\09 - Feitio De Oracao.wav
Peak level 95.0 %
Extraction speed 7.5 X
Track quality 100.0 %
Test CRC 8238D5FA
Copy CRC 8238D5FA
Accurately ripped (confidence 5) [C0D055F9] (AR v2)
Copy OK
Track 10
Filename D:\Rosa Passos & Ron Carter - Entre Amigos (2003) [FLAC]\10 - Eu Sei Que Vou Te Amar.wav
Peak level 98.4 %
Extraction speed 8.0 X
Track quality 100.0 %
Test CRC DEE86C61
Copy CRC DEE86C61
Accurately ripped (confidence 5) [F3A9CDD4] (AR v2)
Copy OK
Track 11
Filename D:\Rosa Passos & Ron Carter - Entre Amigos (2003) [FLAC]\11 - O Grande Amor.wav
Peak level 87.6 %
Extraction speed 8.2 X
Track quality 100.0 %
Test CRC A8A1F265
Copy CRC A8A1F265
Accurately ripped (confidence 5) [3DF50B5C] (AR v2)
Copy OK
All tracks accurately ripped
No errors occurred
End of status report
==== Log checksum 86C6A9534053FC6083B2C09AFEAA9065BC5F1BF22ED2CF51CA6B20386E856E0B ====
 
Содержание индексной карты (.CUE)
REM GENRE "Latin Jazz"
REM DATE 2003
REM DISCID 730C270B
REM COMMENT "ExactAudioCopy v1.0b3"
PERFORMER "Rosa Passos & Ron Carter"
TITLE "Entre Amigos"
FILE "01 - Bahia Com H.wav" WAVE
TRACK 01 AUDIO
TITLE "Bahia Com H"
PERFORMER "Rosa Passos & Ron Carter"
INDEX 01 00:00:00
FILE "02 - Insensatez.wav" WAVE
TRACK 02 AUDIO
TITLE "Insensatez"
PERFORMER "Rosa Passos & Ron Carter"
INDEX 01 00:00:00
FILE "03 - Desafinado.wav" WAVE
TRACK 03 AUDIO
TITLE "Desafinado"
PERFORMER "Rosa Passos & Ron Carter"
INDEX 01 00:00:00
FILE "04 - Sorriu Para Mim.wav" WAVE
TRACK 04 AUDIO
TITLE "Sorriu Para Mim"
PERFORMER "Rosa Passos & Ron Carter"
INDEX 01 00:00:00
FILE "05 - A Primeira Vez.wav" WAVE
TRACK 05 AUDIO
TITLE "A Primeira Vez"
PERFORMER "Rosa Passos & Ron Carter"
INDEX 01 00:00:00
FILE "06 - Garota De Ipanema.wav" WAVE
TRACK 06 AUDIO
TITLE "Garota De Ipanema"
PERFORMER "Rosa Passos & Ron Carter"
INDEX 01 00:00:00
FILE "07 - Por Causa De Voce.wav" WAVE
TRACK 07 AUDIO
TITLE "Por Causa De Voce"
PERFORMER "Rosa Passos & Ron Carter"
INDEX 01 00:00:00
FILE "08 - Caminhos Cruzados.wav" WAVE
TRACK 08 AUDIO
TITLE "Caminhos Cruzados"
PERFORMER "Rosa Passos & Ron Carter"
INDEX 01 00:00:00
FILE "09 - Feitio De Oracao.wav" WAVE
TRACK 09 AUDIO
TITLE "Feitio De Oracao"
PERFORMER "Rosa Passos & Ron Carter"
INDEX 01 00:00:00
FILE "10 - Eu Sei Que Vou Te Amar.wav" WAVE
TRACK 10 AUDIO
TITLE "Eu Sei Que Vou Te Amar"
PERFORMER "Rosa Passos & Ron Carter"
INDEX 01 00:00:00
FILE "11 - O Grande Amor.wav" WAVE
TRACK 11 AUDIO
TITLE "O Grande Amor"
PERFORMER "Rosa Passos & Ron Carter"
INDEX 01 00:00:00
10:04
276
Нет комментариев. Ваш будет первым!