Поиск

(World Fusion, Brazilian Jazz) [CD] Milton Nascimento - Anima (1982) - 1988, FLAC (tracks+.cue), lossless

(World Fusion, Brazilian Jazz) [CD] Milton Nascimento - Anima (1982) - 1988, FLAC (tracks+.cue), lossless
Треклист:
Milton Nascimento - Anima (1982)
Жанр: World Fusion, Brazilian Jazz
Носитель: CD
Год издания: 1988
Издатель (лейбл): Philips
Номер по каталогу: 813 296-2
Аудиокодек: FLAC (*.flac)
Тип рипа: tracks+.cue
Битрейт аудио: lossless
Продолжительность: 39:18
Источник (релизер): tiburon
Наличие сканов в содержимом раздачи: да
Треклист:
01. Evocação das montanhas (6:03)
02. Teia de renda (2:43)
03. Anima (4:12)
04. Olha (3:13)
05. Coração brasileiro (3:21)
06. As várias pontas de uma estrela (3:30)
07. Comunhão (3:23)
08. Certas canções (3:38)
09. Filho (4:51)
10. Essa voz (3:37)
11. No analices (0:47)
 
 
Лог создания рипа
Exact Audio Copy V1.0 beta 2 from 29. April 2011
EAC extraction logfile from 25. June 2011, 13:46
Milton Nascimento / Anima
Used drive : HL-DT-STDVDRRW GSA-H30L Adapter: 3 ID: 0
Read mode : Secure
Utilize accurate stream : Yes
Defeat audio cache : Yes
Make use of C2 pointers : No
Read offset correction : 102
Overread into Lead-In and Lead-Out : Yes
Fill up missing offset samples with silence : Yes
Delete leading and trailing silent blocks : No
Null samples used in CRC calculations : Yes
Used interface : Installed external ASPI interface
Gap handling : Appended to previous track
Used output format : User Defined Encoder
Selected bitrate : 320 kBit/s
Quality : High
Add ID3 tag : No
Command line compressor : C:\Program Files\Exact Audio Copy\Flac\flac.exe
Additional command line options : -V -8 -T "artist=%artist%" -T "title=%title%" -T "album=%albumtitle%" -T "date=%year%" -T "tracknumber=%tracknr%" -T "genre=%genre%" %source%
TOC of the extracted CD
Track | Start | Length | Start sector | End sector
---------------------------------------------------------
1 | 0:00.00 | 6:02.38 | 0 | 27187
2 | 6:02.38 | 2:43.37 | 27188 | 39449
3 | 8:46.00 | 4:12.18 | 39450 | 58367
4 | 12:58.18 | 3:13.02 | 58368 | 72844
5 | 16:11.20 | 3:20.38 | 72845 | 87882
6 | 19:31.58 | 3:30.05 | 87883 | 103637
7 | 23:01.63 | 3:23.00 | 103638 | 118862
8 | 26:24.63 | 3:38.32 | 118863 | 135244
9 | 30:03.20 | 4:51.08 | 135245 | 157077
10 | 34:54.28 | 3:36.42 | 157078 | 173319
11 | 38:30.70 | 0:46.60 | 173320 | 176829
Track 1
Filename E:\rip\Milton Nascimento - Anima - 1982\01 - Evocação das montanhas.wav
Pre-gap length 0:00:02.00
Peak level 53.0 %
Extraction speed 1.6 X
Track quality 99.9 %
Test CRC 7474D16F
Copy CRC 7474D16F
Track not present in AccurateRip database
Copy OK
Track 2
Filename E:\rip\Milton Nascimento - Anima - 1982\02 - Teia de renda.wav
Peak level 74.6 %
Extraction speed 1.7 X
Track quality 100.0 %
Test CRC 6FB3548A
Copy CRC 6FB3548A
Accurately ripped (confidence 1) [B5FF2EB9] (AR v1)
Copy OK
Track 3
Filename E:\rip\Milton Nascimento - Anima - 1982\03 - Anima.wav
Peak level 81.4 %
Extraction speed 2.0 X
Track quality 100.0 %
Test CRC CA659DA3
Copy CRC CA659DA3
Accurately ripped (confidence 1) [3BB286F7] (AR v1)
Copy OK
Track 4
Filename E:\rip\Milton Nascimento - Anima - 1982\04 - Olha.wav
Peak level 75.9 %
Extraction speed 2.0 X
Track quality 100.0 %
Test CRC B3D1B933
Copy CRC B3D1B933
Track not present in AccurateRip database
Copy OK
Track 5
Filename E:\rip\Milton Nascimento - Anima - 1982\05 - Coração brasileiro.wav
Peak level 90.7 %
Extraction speed 1.8 X
Track quality 99.9 %
Test CRC 24976115
Copy CRC 24976115
Accurately ripped (confidence 1) [EACEB236] (AR v1)
Copy OK
Track 6
Filename E:\rip\Milton Nascimento - Anima - 1982\06 - As várias pontas de uma estrela.wav
Peak level 53.0 %
Extraction speed 2.2 X
Track quality 100.0 %
Test CRC 79F83230
Copy CRC 79F83230
Accurately ripped (confidence 1) [79745C1B] (AR v1)
Copy OK
Track 7
Filename E:\rip\Milton Nascimento - Anima - 1982\07 - Comunhão.wav
Peak level 81.2 %
Extraction speed 2.3 X
Track quality 100.0 %
Test CRC D1300051
Copy CRC D1300051
Accurately ripped (confidence 1) [8D901239] (AR v1)
Copy OK
Track 8
Filename E:\rip\Milton Nascimento - Anima - 1982\08 - Certas canções.wav
Peak level 85.6 %
Extraction speed 2.1 X
Track quality 99.9 %
Test CRC 4705C479
Copy CRC 4705C479
Accurately ripped (confidence 1) [F1DD8057] (AR v1)
Copy OK
Track 9
Filename E:\rip\Milton Nascimento - Anima - 1982\09 - Filho.wav
Peak level 86.5 %
Extraction speed 2.7 X
Track quality 100.0 %
Test CRC 3D809A38
Copy CRC 3D809A38
Accurately ripped (confidence 1) [4B5437AF] (AR v1)
Copy OK
Track 10
Filename E:\rip\Milton Nascimento - Anima - 1982\10 - Essa voz.wav
Peak level 100.0 %
Extraction speed 2.7 X
Track quality 100.0 %
Test CRC 93C7D079
Copy CRC 93C7D079
Track not present in AccurateRip database
Copy OK
Track 11
Filename E:\rip\Milton Nascimento - Anima - 1982\11 - No analices.wav
Peak level 42.6 %
Extraction speed 2.2 X
Track quality 99.7 %
Test CRC 03C5C0FA
Copy CRC 03C5C0FA
Track not present in AccurateRip database
Copy OK
7 track(s) accurately ripped
4 track(s) not present in the AccurateRip database
Some tracks could not be verified as accurate
No errors occurred
End of status report
==== Log checksum 52BC5FF821DA9709CB9B7E2C4137909CEBEB6172513DA076C922D22F8141291E ====
 
Содержание индексной карты (.CUE)
REM GENRE Brazilian
REM DATE 1982
REM DISCID 9609350B
REM COMMENT "Exact Audio Copy V1.0 beta 2"
PERFORMER "Milton Nascimento"
TITLE "Anima"
FILE "01 - Evocacao das montanhas.flac" WAVE
TRACK 01 AUDIO
TITLE "Evocação das montanhas"
PERFORMER "Milton Nascimento"
INDEX 01 00:00:00
FILE "02 - Teia de renda.flac" WAVE
TRACK 02 AUDIO
TITLE "Teia de renda"
PERFORMER "Milton Nascimento"
INDEX 01 00:00:00
FILE "03 - Anima.flac" WAVE
TRACK 03 AUDIO
TITLE "Anima"
PERFORMER "Milton Nascimento"
INDEX 01 00:00:00
FILE "04 - Olha.flac" WAVE
TRACK 04 AUDIO
TITLE "Olha"
PERFORMER "Milton Nascimento"
INDEX 01 00:00:00
FILE "05 - Coracao brasileiro.flac" WAVE
TRACK 05 AUDIO
TITLE "Coração brasileiro"
PERFORMER "Milton Nascimento"
INDEX 01 00:00:00
FILE "06 - As varias pontas de uma estrela.flac" WAVE
TRACK 06 AUDIO
TITLE "As várias pontas de uma estrela"
PERFORMER "Milton Nascimento"
INDEX 01 00:00:00
FILE "07 - Comunhao.flac" WAVE
TRACK 07 AUDIO
TITLE "Comunhão"
PERFORMER "Milton Nascimento"
INDEX 01 00:00:00
FILE "08 - Certas cancoes.flac" WAVE
TRACK 08 AUDIO
TITLE "Certas canções"
PERFORMER "Milton Nascimento"
INDEX 01 00:00:00
FILE "09 - Filho.flac" WAVE
TRACK 09 AUDIO
TITLE "Filho"
PERFORMER "Milton Nascimento"
INDEX 01 00:00:00
FILE "10 - Essa voz.flac" WAVE
TRACK 10 AUDIO
TITLE "Essa voz"
PERFORMER "Milton Nascimento"
INDEX 01 00:00:00
FILE "11 - No analices.flac" WAVE
TRACK 11 AUDIO
TITLE "No analices"
PERFORMER "Milton Nascimento"
INDEX 01 00:00:00
 
 
Состав
Milton Nascimento - vocals
Ellis Regina - vocals
Caetano Veloso - vocals
Wagner Tiso - keyboards
Ricardo Silveira - guitar
Robertinho Silva - drums
Marco Antonio Guimaraes - percussion
Bento Menezes - acoustic guitar
Artur Andres - flute
Paulinho Carvalho - electric bass, vocals
Jose Renato - vocals
Marilene Bretas - vocals
Tunai - vocals
Tadue Franco - vocals
Tavinho Bretas - vocals
Maria De Fatima - vocals
Decio Filho - percussion
Paulo Santos - percussion
18:54
252
Нет комментариев. Ваш будет первым!