Поиск

(Bossa Nova, Latin Jazz, Post-Bop) [CD] George Garzone & Trio Da Paz - Night of My Beloved - 2007 (Japan Edition), FLAC (tracks+.cue), lossless

(Bossa Nova, Latin Jazz, Post-Bop) [CD] George Garzone & Trio Da Paz - Night of My Beloved - 2007 (Japan Edition), FLAC (tracks+.cue), lossless
Треклист:
George Garzone & Trio Da Paz - Night of My Beloved
Жанр: Bossa Nova, Latin Jazz, Post-Bop
Носитель: CD
Страна-производитель диска (релиза): Япония
Год издания: 2007
Издатель (лейбл): Venus Records
Номер по каталогу: TKCV-35403
Страна исполнителя (группы): США
Аудиокодек: FLAC (*.flac)
Тип рипа: tracks+.cue
Битрейт аудио: lossless
Продолжительность: 58:55
Источник (релизер): kvolik27 (what)
Наличие сканов в содержимом раздачи: да
Треклист:
01. Felicidade (Jobim) - 7:30
02. Gentle Rain (Bonfa) - 5:56
03. Choro (Jobim) - 4:11
04. Pra Dizer Adeus (Lobo) - 5:59
05. Alone (Garzone) - 5:50
06. A Noite do Meu Bem (Night of My Beloved) (Duran) - 6:10
07. Falando de Amor (Jobim) - 5:48
08. Ballad for Lana (Garzone) - 6:06
09. The Shadow of Your Smile (Mandel) - 5:35
10. Fotografia (Jobim) - 5:50
Состав:
George Garzone - tenor saxophone
Kenny Werner - piano
Trio Da Paz:
Romero Lubambo - guitar
Nilson Matta - bass
Duduka Da Fonseca - drums
Recorded at The Studio, New York on August 8-9, 2006.
 
Лог создания рипа
Exact Audio Copy V1.0 beta 3 from 29. August 2011
EAC extraction logfile from 28. August 2012, 23:29
George Garzone & Trio Da Paz / Night Of My Beloved
Used drive : PLEXTOR CD-R PX-W2410A Adapter: 4 ID: 0
Read mode : Secure
Utilize accurate stream : Yes
Defeat audio cache : Yes
Make use of C2 pointers : No
Read offset correction : 98
Overread into Lead-In and Lead-Out : No
Fill up missing offset samples with silence : Yes
Delete leading and trailing silent blocks : No
Null samples used in CRC calculations : Yes
Used interface : Native Win32 interface for Win NT & 2000
Gap handling : Appended to previous track
Used output format : User Defined Encoder
Selected bitrate : 1024 kBit/s
Quality : High
Add ID3 tag : No
Command line compressor : C:\Program Files\Exact Audio Copy\FLAC\FLAC.EXE
Additional command line options : -8 -V -T "ARTIST=%artist%" -T "TITLE=%title%" -T "ALBUM=%albumtitle%" -T "DATE=%year%" -T "TRACKNUMBER=%tracknr%" -T "GENRE=%genre%" -T "PERFORMER=%albuminterpret%" -T "COMPOSER=%composer%" %haslyrics%--tag-from-file=LYRICS="%lyricsfile%"%haslyrics% -T "ALBUMARTIST=%albumartist%" -T "DISCNUMBER=%cdnumber%" -T "TOTALDISCS=%totalcds%" -T "TOTALTRACKS=%numtracks%" -T "COMMENT=%comment%" %source%
TOC of the extracted CD
Track | Start | Length | Start sector | End sector
---------------------------------------------------------
1 | 0:00.00 | 7:30.00 | 0 | 33749
2 | 7:30.00 | 5:56.00 | 33750 | 60449
3 | 13:26.00 | 4:11.00 | 60450 | 79274
4 | 17:37.00 | 5:59.00 | 79275 | 106199
5 | 23:36.00 | 5:50.00 | 106200 | 132449
6 | 29:26.00 | 6:10.00 | 132450 | 160199
7 | 35:36.00 | 5:48.00 | 160200 | 186299
8 | 41:24.00 | 6:06.00 | 186300 | 213749
9 | 47:30.00 | 5:35.00 | 213750 | 238874
10 | 53:05.00 | 5:50.15 | 238875 | 265139
Track 1
Filename X:\EAC\George Garzone & Trio Da Paz - Night Of My Beloved (Venus JP 2007) [FLAC]\01. Felicidade.wav
Pre-gap length 0:00:02.00
Peak level 97.7 %
Extraction speed 3.7 X
Track quality 100.0 %
Test CRC 165F9A18
Copy CRC 165F9A18
Track not present in AccurateRip database
Copy OK
Track 2
Filename X:\EAC\George Garzone & Trio Da Paz - Night Of My Beloved (Venus JP 2007) [FLAC]\02. Gentle Rain.wav
Pre-gap length 0:00:04.45
Peak level 97.2 %
Extraction speed 3.7 X
Track quality 100.0 %
Test CRC 7A4FD3D3
Copy CRC 7A4FD3D3
Track not present in AccurateRip database
Copy OK
Track 3
Filename X:\EAC\George Garzone & Trio Da Paz - Night Of My Beloved (Venus JP 2007) [FLAC]\03. Choro.wav
Pre-gap length 0:00:04.45
Peak level 97.6 %
Extraction speed 3.3 X
Track quality 99.9 %
Test CRC 077BD12A
Copy CRC 077BD12A
Track not present in AccurateRip database
Copy OK
Track 4
Filename X:\EAC\George Garzone & Trio Da Paz - Night Of My Beloved (Venus JP 2007) [FLAC]\04. Pra Dizer Adeus.wav
Pre-gap length 0:00:04.45
Peak level 96.8 %
Extraction speed 3.7 X
Track quality 100.0 %
Test CRC 0B2BD5EF
Copy CRC 0B2BD5EF
Track not present in AccurateRip database
Copy OK
Track 5
Filename X:\EAC\George Garzone & Trio Da Paz - Night Of My Beloved (Venus JP 2007) [FLAC]\05. Alone.wav
Pre-gap length 0:00:04.45
Peak level 97.4 %
Extraction speed 3.7 X
Track quality 100.0 %
Test CRC E70846BA
Copy CRC E70846BA
Track not present in AccurateRip database
Copy OK
Track 6
Filename X:\EAC\George Garzone & Trio Da Paz - Night Of My Beloved (Venus JP 2007) [FLAC]\06. A Noite Do Meu Bem (Night Of My Beloved).wav
Pre-gap length 0:00:04.45
Peak level 96.7 %
Extraction speed 3.7 X
Track quality 100.0 %
Test CRC 4A3A2FF2
Copy CRC 4A3A2FF2
Track not present in AccurateRip database
Copy OK
Track 7
Filename X:\EAC\George Garzone & Trio Da Paz - Night Of My Beloved (Venus JP 2007) [FLAC]\07. Falando De Amor.wav
Pre-gap length 0:00:04.45
Peak level 97.4 %
Extraction speed 3.7 X
Track quality 100.0 %
Test CRC 3E518EDE
Copy CRC 3E518EDE
Track not present in AccurateRip database
Copy OK
Track 8
Filename X:\EAC\George Garzone & Trio Da Paz - Night Of My Beloved (Venus JP 2007) [FLAC]\08. Ballad For Lana.wav
Pre-gap length 0:00:04.45
Peak level 97.2 %
Extraction speed 3.7 X
Track quality 100.0 %
Test CRC E61ED492
Copy CRC E61ED492
Track not present in AccurateRip database
Copy OK
Track 9
Filename X:\EAC\George Garzone & Trio Da Paz - Night Of My Beloved (Venus JP 2007) [FLAC]\09. The Shadow Of Your Smile.wav
Pre-gap length 0:00:04.45
Peak level 97.2 %
Extraction speed 3.4 X
Track quality 99.9 %
Test CRC AF6FC46E
Copy CRC AF6FC46E
Track not present in AccurateRip database
Copy OK
Track 10
Filename X:\EAC\George Garzone & Trio Da Paz - Night Of My Beloved (Venus JP 2007) [FLAC]\10. Fotografia.wav
Pre-gap length 0:00:04.45
Peak level 97.5 %
Extraction speed 3.3 X
Track quality 100.0 %
Test CRC E0A5447D
Copy CRC E0A5447D
Track not present in AccurateRip database
Copy OK
None of the tracks are present in the AccurateRip database
No errors occurred
End of status report
---- CUETools DB Plugin V2.1.3
[CTDB TOCID: IqL.gDo3CML5G_ZHxKCGKhyvtKY-] found, Submit result: IqL.gDo3CML5G_ZHxKCGKhyvtKY- has been confirmed
[18d7e202] (1/1) Accurately ripped
==== Log checksum A0DEF87D89A997A81DE72C4DC85719FF67388CD3CEBA9A08B75093C44868CDB3 ====
 
Содержание индексной карты (.CUE)
REM GENRE Jazz
REM DATE 2007
REM DISCID 960DCF0A
REM COMMENT "ExactAudioCopy v1.0b3"
PERFORMER "George Garzone & Trio Da Paz"
TITLE "Night of My Beloved"
FILE "01 - Felicidade.wav" WAVE
TRACK 01 AUDIO
TITLE "Felicidade"
PERFORMER "George Garzone & Trio Da Paz"
INDEX 01 00:00:00
TRACK 02 AUDIO
TITLE "Gentle Rain"
PERFORMER "George Garzone & Trio Da Paz"
INDEX 00 07:25:30
FILE "02 - Gentle Rain.wav" WAVE
INDEX 01 00:00:00
TRACK 03 AUDIO
TITLE "Choro"
PERFORMER "George Garzone & Trio Da Paz"
INDEX 00 05:51:30
FILE "03 - Choro.wav" WAVE
INDEX 01 00:00:00
TRACK 04 AUDIO
TITLE "Pra Dizer Adeus"
PERFORMER "George Garzone & Trio Da Paz"
INDEX 00 04:06:30
FILE "04 - Pra Dizer Adeus.wav" WAVE
INDEX 01 00:00:00
TRACK 05 AUDIO
TITLE "Alone"
PERFORMER "George Garzone & Trio Da Paz"
INDEX 00 05:54:30
FILE "05 - Alone.wav" WAVE
INDEX 01 00:00:00
TRACK 06 AUDIO
TITLE "A Noite do Meu Bem (Night of My Beloved)"
PERFORMER "George Garzone & Trio Da Paz"
INDEX 00 05:45:30
FILE "06 - A Noite do Meu Bem (Night of My Beloved).wav" WAVE
INDEX 01 00:00:00
TRACK 07 AUDIO
TITLE "Falando de Amor"
PERFORMER "George Garzone & Trio Da Paz"
INDEX 00 06:05:30
FILE "07 - Falando de Amor.wav" WAVE
INDEX 01 00:00:00
TRACK 08 AUDIO
TITLE "Ballad for Lana"
PERFORMER "George Garzone & Trio Da Paz"
INDEX 00 05:43:30
FILE "08 - Ballad for Lana.wav" WAVE
INDEX 01 00:00:00
TRACK 09 AUDIO
TITLE "The Shadow of Your Smile"
PERFORMER "George Garzone & Trio Da Paz"
INDEX 00 06:01:30
FILE "09 - The Shadow of Your Smile.wav" WAVE
INDEX 01 00:00:00
TRACK 10 AUDIO
TITLE "Fotografia"
PERFORMER "George Garzone & Trio Da Paz"
INDEX 00 05:30:30
FILE "10 - Fotografia.wav" WAVE
INDEX 01 00:00:00
 
Отчет CUETools
[CUETools log; Date: 02.06.2015 13:41:47; Version: 2.1.5]
[CTDB TOCID: IqL.gDo3CML5G_ZHxKCGKhyvtKY-] found.
Track | CTDB Status
1 | (3/3) Accurately ripped
2 | (3/3) Accurately ripped
3 | (3/3) Accurately ripped
4 | (3/3) Accurately ripped
5 | (3/3) Accurately ripped
6 | (3/3) Accurately ripped
7 | (3/3) Accurately ripped
8 | (3/3) Accurately ripped
9 | (3/3) Accurately ripped
10 | (3/3) Accurately ripped
[AccurateRip ID: 00168726-00b3060b-960dcf0a] found.
Track [ CRC | V2 ] Status
01 [61e6b445|3b0dfa27] (0+0/5) No match
02 [9e855eb3|b36cbb03] (0+0/5) No match
03 [cdb760c9|1cc931c6] (0+0/5) No match
04 [446a41db|20a1384b] (0+0/5) No match
05 [6e23a86f|cbd4d07d] (0+0/5) No match
06 [a77566c7|c97065d6] (0+0/5) No match
07 [507a6449|52cc15c1] (0+0/5) No match
08 [f189a190|b5da1442] (0+0/5) No match
09 [587078ad|b55895d6] (0+0/5) No match
10 [5718c608|969668a1] (0+0/5) No match
Offsetted by 676:
01 [922f6cbd] (0/5) No match (V2 was not tested)
02 [5eb29cbf] (0/5) No match (V2 was not tested)
03 [efe732b9] (0/5) No match (V2 was not tested)
04 [b63ceba3] (0/5) No match (V2 was not tested)
05 [770d2213] (0/5) No match (V2 was not tested)
06 [7a2e37e3] (0/5) No match (V2 was not tested)
07 [d285c435] (0/5) No match (V2 was not tested)
08 [96862da4] (0/5) No match (V2 was not tested)
09 [81879e71] (0/5) No match (V2 was not tested)
10 [e15af80f] (0/5) No match (V2 was not tested)
Track Peak [ CRC32 ] [W/O NULL] [ LOG ]
-- 97,7 [0136B748] [81CB7BF3]
01 97,7 [165F9A18] [6E532C88] CRC32
02 97,2 [7A4FD3D3] [8D26D5C3] CRC32
03 97,6 [077BD12A] [02ABD2A4] CRC32
04 96,8 [0B2BD5EF] [300840A8] CRC32
05 97,4 [E70846BA] [D767A361] CRC32
06 96,7 [4A3A2FF2] [4452AB15] CRC32
07 97,4 [3E518EDE] [83BC7C6E] CRC32
08 97,2 [E61ED492] [22A12CD0] CRC32
09 97,2 [AF6FC46E] [8C0B6FB6] CRC32
10 97,5 [E0A5447D] [6E2E37F0] CRC32
 
Об альбоме (сборнике)
George Garzone (b. 1950) is a wonderful tenor sax player who is perhaps better known as a highly respected educator. He has taught Branford Marsalis, Joshua Redman and Mark Turner, among many others. His recorded debut was relatively late in 1995, and his main influences are Stan Getz and John Coltrane.
For this very special album, Garzone tapped into his Getz inspiration as he was paired with Trio da Paz, a superb Brazillian trio led by the great guitarist Romero Lubambo. And, as if this was not enough, piano master Kenny Werner rounded out the all-star cast.
A casual listener might relegate this CD to background music but that would be a mistake. An astute listener will savor all the notes played by these masters, who are all sensitive, empahtetic to each other, and play only the right notes at the right time to make beautiful music. If you listen deeply, you will be deeply rewarded.
18:53
260
Нет комментариев. Ваш будет первым!