Поиск

(World Fusion, Brass Band) De Nazaten & James Carter - For Now - 2011, FLAC (image+.cue), lossless

(World Fusion, Brass Band) De Nazaten & James Carter - For Now - 2011, FLAC (image+.cue), lossless
Треклист:
De Nazaten & James Carter / For Now
Жанр: World Fusion, Brass Band
Год издания: 2011
Издатель (лейбл): Strotbrock
Номер по каталогу:
Страна: Surinam/ USA
Аудиокодек: FLAC (*.flac)
Тип рипа: image+.cue
Битрейт аудио: lossless
Продолжительность: 00:44:26
Источник (релизер): malieff
Наличие сканов в содержимом раздачи: нет
Треклист:
1 Pasportica Alochtonica (Robby Alberga) - 6:34
2 When Copy meets Bu (Klaas Hekman) - 9:13
3 For Now (Joost Buis) - 8:55
4 Polderprut (Klaas Hekman) - 4:42
5 Amerindian Connection (Robby Alberga) - 7:50
6 Carter Kaseko (Ronald Snijders) - 7:12
Recorded November 18/19 2009 in Fattoria studio Osnabruck Germany
 
Лог создания рипа
Exact Audio Copy V1.0 beta 2 from 29. April 2011
EAC extraction logfile from 28. July 2011, 19:44
De Nazaten & James Carter / For Now
Used drive : Optiarc DVD RW AD-7243S Adapter: 4 ID: 0
Read mode : Secure
Utilize accurate stream : Yes
Defeat audio cache : Yes
Make use of C2 pointers : No
Read offset correction : 48
Overread into Lead-In and Lead-Out : No
Fill up missing offset samples with silence : Yes
Delete leading and trailing silent blocks : No
Null samples used in CRC calculations : Yes
Used interface : Native Win32 interface for Win NT & 2000
Used output format : Internal WAV Routines
Sample format : 44.100 Hz; 16 Bit; Stereo
TOC of the extracted CD
Track | Start | Length | Start sector | End sector
---------------------------------------------------------
1 | 0:00.00 | 6:34.42 | 0 | 29591
2 | 6:34.42 | 9:13.54 | 29592 | 71120
3 | 15:48.21 | 8:55.59 | 71121 | 111304
4 | 24:44.05 | 4:42.72 | 111305 | 132526
5 | 29:27.02 | 7:50.47 | 132527 | 167823
6 | 37:17.49 | 7:12.44 | 167824 | 200267
Range status and errors
Selected range
Filename E:\1\De Nazaten & James Carter - For Now.wav
Peak level 90.0 %
Extraction speed 3.9 X
Range quality 99.9 %
Copy CRC E773D26F
Copy OK
No errors occurred
AccurateRip summary
Track 1 not present in database
Track 2 not present in database
Track 3 not present in database
Track 4 not present in database
Track 5 not present in database
Track 6 not present in database
None of the tracks are present in the AccurateRip database
End of status report
 
Содержание индексной карты (.CUE)
REM GENRE Jazz
REM DATE 2010
REM DISCID 5C0A6E06
REM COMMENT "ExactAudioCopy v1.0b2"
PERFORMER "De Nazaten & James Carter"
TITLE "For Now"
FILE "De Nazaten & James Carter - For Now.flac" WAVE
TRACK 01 AUDIO
TITLE "Pasportica Allochtonica"
PERFORMER "De Nazaten & James Carter"
INDEX 01 00:00:00
TRACK 02 AUDIO
TITLE "When Copy Meets Bu"
PERFORMER "De Nazaten & James Carter"
INDEX 01 06:34:42
TRACK 03 AUDIO
TITLE "For Now"
PERFORMER "De Nazaten & James Carter"
INDEX 01 15:48:21
TRACK 04 AUDIO
TITLE "Polderprut"
PERFORMER "De Nazaten & James Carter"
INDEX 01 24:44:05
TRACK 05 AUDIO
TITLE "Amerindian Connection"
PERFORMER "De Nazaten & James Carter"
INDEX 01 29:27:02
TRACK 06 AUDIO
TITLE "Carter Kaseko"
PERFORMER "De Nazaten & James Carter"
INDEX 01 37:17:49
 
Лог проверки качества
-----------------------
DON'T MODIFY THIS FILE
-----------------------
PERFORMER: auCDtect Task Manager, ver. 1.5.1RC3 build 1.5.1.4
Copyright (c) 2008-2010 y-soft. All rights reserved
http://y-soft.org
ANALYZER: auCDtect: CD records authenticity detector, version 0.8.2
Copyright (c) 2004 Oleg Berngardt. All rights reserved.
Copyright (c) 2004 Alexander Djourik. All rights reserved.
FILE: De Nazaten & James Carter - For Now.flac
Size: 256597112 Hash: D872001B9B04CEA42BEE3DBCB63E8EF7 Accuracy: -m0
Conclusion: CDDA 99%
Signature: BDDC37057ED7B9D39942CE3A2D1CA5AA135F4DD6
 
Об исполнителе (группе)
 
Об альбоме (сборнике)
Recently the Dutch / Surinamese group De Nazaten released its second album featuring saxophonist James Carter. This album was recorded at a studio recording session in Germany (Osnabrück), although, as the liner notes say, playing live is always better according to De Nazaten. And that's true - De Nazaten is a band you should see and hear live in concert Читать всё
 
Состав
De Nazaten:
Robby Alberga, guitar
Klaas Hekman, bass-, soprano saxophone and flute
Carlo Ulrichi Hoop, apinti drum,congas, Surinam percussion
Keimpe de Jong sporano-, alto- and tenor saxophone
Gregory Kranenburg snare-drum
Chris Semmoh skraty, snaredrum
Michael Simon trumpet
Patrick Votrian trombone, sousaphone
Special guest James Carter, baritone saxophone
Приватный:
Нет (DHT включён)
Размер:
244.90 Мб (256,797,840 байт) » файлов: 5
Участники:
0 раздают, 0 качают (0 участников всего)
Внешние участники:
2 раздают, 1 качают (3 участников всего) [ Обновить ]
For power users only: no seeders - write to support@pro-jazz.com. Для power user: нет сидеров - пишите на support@pro-jazz.com.
13:06
158
Нет комментариев. Ваш будет первым!