Поиск

(Fusion / Contemporary Jazz) Oregon (Paul McCandless, Ralph Towner, Glen Moore, Mark Walker) - Family Tree - 2012, FLAC (tracks+.cue), lossless

(Fusion / Contemporary Jazz) Oregon (Paul McCandless, Ralph Towner, Glen Moore, Mark Walker) - Family Tree - 2012, FLAC (tracks+.cue), lossless
Треклист:
Oregon - Family Tree
Жанр: Fusion / Contemporary Jazz / CAM Jazz
Страна-производитель диска: Italy
Год издания: 2012
Издатель (лейбл): CAM Jazz
Номер по каталогу: CAMJ 7855-2
Аудиокодек: FLAC (*.flac)
Тип рипа: tracks+.cue
Битрейт аудио: lossless
Продолжительность: 01:01:58
Источник (релизер): what.cd / спасибо fialazdnk
Наличие сканов в содержимом раздачи: да
Треклист:
1. Bibo Babo (06:25)
2. Tern (05:18)
3. Hexagram (05:50)
4. Creeper (05:51)
5. Jurassic (02:24)
6. Family Tree (06:28)
7. Stritch (02:44)
8. Mirror Pond (05:49)
9. Moot (05:45)
10. Julian (04:26)
11. Max Alert (01:03)
12. Carnival Express (08:01)
Доп. информация:
Musicians:
Paul McCandless - oboe, bass clarinet, soprano sax, flutes
Ralph Towner - classical guitar, piano, synthesizer
Glen Moore - double-bass
Mark Walker - drums, hand percussion, drum synthesizer
Recorded and mixed in Ludwigsburg on 24-28 April 2012 at Bauer Studios
© 2012 KEPACH Music S.r.l.
Oregon Official Site
Oregon - Family Tree camjazz.com
Oregon - Family Tree allaboutjazz.com
Oregon - Family Tree allmusic.com
 
... text ...
Family Tree is dedicated not only to the immediate families of each of us, but also to the extended family of listeners, producers, technicians, and all that have supplied the encouragement and help that have kept us thriving. Our dedication to the expansion and improvement of our music-making is the fruit of this care and the trust placed in us. ~ Oregon
 
... review ...
Oregon hat auch nach 42 Jahren fast ununterbrochener Bandgeschichte nichts von seiner Kreativität, Spielfreude und Vitalität verloren. Das Quartett, das nur nach dem Unfalltod von Colin Walcott 1984 für kurze Zeit nicht mehr bestand, besticht auch auf der jüngsten Studioproduktion durch Stil-und Instrumentenvielfalt. Ob Jazz, Klassik oder Weltmusik, Begriffe sind Schall und Rauch. Für Oregon allemal. Komposition und Improvisation geben sich die Hände, mal hat das eine die Oberhand, dann das andere. In ihrer nicht selten kammermusikalisch anmutenden Tonkunst fließen immer wieder brüchige Rock-Riffs wie Folk-Floskeln ein und punkgenaue Spieltechniken, und zum Teil minimalistisch in sich swingende Klanglandschaften machen so erneut den ganz typischen, mit kaum einem anderen Künstler oder einer Formation vergleichbaren Sound von Oregon aus. Ralph Towner (72) wandelt auf lyrisch wie klassisch-jazzigen Saitenpfaden (“The hexgram”), das Youngster Mark Walker (51) mit orientalischen Trommelfragmenten verziert. Glenn Moore (70) bedient den Tieftöner wunderbar rhythmisch wie elegant solistisch im modern boppenden “Tern”. Experimentell mit rhapsodischen Einlagen kommt “Jurassic” daher, das Saxer, Klarinettist und Oboist Paul McCandless (65) schaurig anbläst. Und ein kurzer Ausflug in free-jazzig-elektronische Gefilde (“Max alert”) darf ebenso nicht fehlen wie eine längere Reise in Latin gefärbte Klangwelten (“Carnival express”) mit Fusion-Touch und das Balladeske wie im sphärisch wirkenden “Mirror pond”. Die Platte ist eine Weiterentwicklung Oregon’scher Musik und ein Dankeschön für das Vertrauen, das die eigene Familie wie die erweiterte der Zuhörer in die Band setzten.
Michael Schaust ~ Jazz Podium 1/2/2013
 
Лог создания рипа
Exact Audio Copy V1.0 beta 3 from 29. August 2011
EAC extraction logfile from 25. December 2012, 12:58
Oregon / Family Tree
Used drive : ASUS DRW-2014L1T Adapter: 3 ID: 2
Read mode : Secure
Utilize accurate stream : Yes
Defeat audio cache : Yes
Make use of C2 pointers : No
Read offset correction : 6
Overread into Lead-In and Lead-Out : No
Fill up missing offset samples with silence : Yes
Delete leading and trailing silent blocks : No
Null samples used in CRC calculations : Yes
Used interface : Native Win32 interface for Win NT & 2000
Gap handling : Appended to previous track
Used output format : User Defined Encoder
Selected bitrate : 1024 kBit/s
Quality : High
Add ID3 tag : No
Command line compressor : C:\Program Files\Exact Audio Copy\FLAC\FLAC.EXE
Additional command line options : -8 -V -T "ARTIST=%artist%" -T "TITLE=%title%" -T "ALBUM=%albumtitle%" -T "DATE=%year%" -T "TRACKNUMBER=%tracknr%" -T "GENRE=%genre%" -T "COMMENT=%comment%" -T "BAND=%albuminterpret%" -T "ALBUMARTIST=%albuminterpret%" -T "COMPOSER=%composer%" %haslyrics%--tag-from-file=LYRICS="%lyricsfile%"%haslyrics% -T "DISCNUMBER=%cdnumber%" -T "TOTALDISCS=%totalcds%" -T "TOTALTRACKS=%numtracks%" %hascover%--picture="%coverfile%"%hascover% %source% -o %dest%
TOC of the extracted CD
Track | Start | Length | Start sector | End sector
---------------------------------------------------------
1 | 0:00.00 | 6:55.31 | 0 | 31155
2 | 6:55.31 | 5:22.38 | 31156 | 55343
3 | 12:17.69 | 5:54.46 | 55344 | 81939
4 | 18:12.40 | 5:34.47 | 81940 | 107036
5 | 23:47.12 | 2:28.11 | 107037 | 118147
6 | 26:15.23 | 6:31.55 | 118148 | 147527
7 | 32:47.03 | 2:47.68 | 147528 | 160120
8 | 35:34.71 | 5:53.37 | 160121 | 186632
9 | 41:28.33 | 5:48.67 | 186633 | 212799
10 | 47:17.25 | 4:31.48 | 212800 | 233172
11 | 51:48.73 | 1:07.47 | 233173 | 238244
12 | 52:56.45 | 8:01.70 | 238245 | 274389
Track 1
Filename C:\WR\ExAudio\Oregon\01 Bibo babo.wav
Pre-gap length 0:00:02.00
Peak level 93.9 %
Extraction speed 3.0 X
Track quality 100.0 %
Test CRC B5E419BB
Copy CRC B5E419BB
Track not present in AccurateRip database
Copy OK
Track 2
Filename C:\WR\ExAudio\Oregon\02 Tern.wav
Pre-gap length 0:00:03.00
Peak level 93.9 %
Extraction speed 3.4 X
Track quality 100.0 %
Test CRC BA7B5F99
Copy CRC BA7B5F99
Track not present in AccurateRip database
Copy OK
Track 3
Filename C:\WR\ExAudio\Oregon\03 The hexagram.wav
Pre-gap length 0:00:04.09
Peak level 93.9 %
Extraction speed 3.8 X
Track quality 100.0 %
Test CRC 2D0AE229
Copy CRC 2D0AE229
Track not present in AccurateRip database
Copy OK
Track 4
Filename C:\WR\ExAudio\Oregon\04 Creeper.wav
Pre-gap length 0:00:03.54
Peak level 93.9 %
Extraction speed 2.5 X
Track quality 99.9 %
Test CRC 34AEE299
Copy CRC 34AEE299
Track not present in AccurateRip database
Copy OK
Track 5
Filename C:\WR\ExAudio\Oregon\05 Jurassic.wav
Pre-gap length 0:00:03.45
Peak level 93.9 %
Extraction speed 3.7 X
Track quality 100.0 %
Test CRC 26043991
Copy CRC 26043991
Track not present in AccurateRip database
Copy OK
Track 6
Filename C:\WR\ExAudio\Oregon\06 Family tree.wav
Pre-gap length 0:00:03.72
Peak level 93.9 %
Extraction speed 2.8 X
Track quality 99.9 %
Test CRC B692184E
Copy CRC B692184E
Track not present in AccurateRip database
Copy OK
Track 7
Filename C:\WR\ExAudio\Oregon\07 Stritch.wav
Pre-gap length 0:00:03.00
Peak level 93.9 %
Extraction speed 4.2 X
Track quality 100.0 %
Test CRC B42845B9
Copy CRC B42845B9
Track not present in AccurateRip database
Copy OK
Track 8
Filename C:\WR\ExAudio\Oregon\08 Mirror pond.wav
Pre-gap length 0:00:03.00
Peak level 93.9 %
Extraction speed 4.9 X
Track quality 100.0 %
Test CRC 337536BB
Copy CRC 337536BB
Track not present in AccurateRip database
Copy OK
Track 9
Filename C:\WR\ExAudio\Oregon\09 Moot.wav
Pre-gap length 0:00:03.56
Peak level 93.9 %
Extraction speed 3.1 X
Track quality 99.9 %
Test CRC 5FD182FF
Copy CRC 5FD182FF
Track not present in AccurateRip database
Copy OK
Track 10
Filename C:\WR\ExAudio\Oregon\10 Julian.wav
Pre-gap length 0:00:03.00
Peak level 93.9 %
Extraction speed 5.2 X
Track quality 100.0 %
Test CRC 095236B0
Copy CRC 095236B0
Track not present in AccurateRip database
Copy OK
Track 11
Filename C:\WR\ExAudio\Oregon\11 Max Alert.wav
Pre-gap length 0:00:04.53
Peak level 93.9 %
Extraction speed 3.8 X
Track quality 100.0 %
Test CRC C321D7D1
Copy CRC C321D7D1
Track not present in AccurateRip database
Copy OK
Track 12
Filename C:\WR\ExAudio\Oregon\12 Carnival express.wav
Pre-gap length 0:00:04.13
Peak level 93.9 %
Extraction speed 5.8 X
Track quality 100.0 %
Test CRC C6B25CF0
Copy CRC C6B25CF0
Track not present in AccurateRip database
Copy OK
None of the tracks are present in the AccurateRip database
No errors occurred
End of status report
==== Log checksum 8D71D9847E2C7D7D92656D8B7EBA7936C8D59288E8F22826054C1E5E5056642F ====
 
Содержание индексной карты (.CUE)
REM GENRE Jazz
REM DATE 2012
REM DISCID B50E4A0C
REM COMMENT "ExactAudioCopy v1.0b3"
PERFORMER "Oregon"
TITLE "Family Tree"
FILE "01 Bibo babo.wav" WAVE
TRACK 01 AUDIO
TITLE "Bibo babo"
PERFORMER "Oregon"
FLAGS DCP
INDEX 01 00:00:00
TRACK 02 AUDIO
TITLE "Tern"
PERFORMER "Oregon"
FLAGS DCP
INDEX 00 06:52:31
FILE "02 Tern.wav" WAVE
INDEX 01 00:00:00
TRACK 03 AUDIO
TITLE "The hexagram"
PERFORMER "Oregon"
FLAGS DCP
INDEX 00 05:18:29
FILE "03 The hexagram.wav" WAVE
INDEX 01 00:00:00
TRACK 04 AUDIO
TITLE "Creeper"
PERFORMER "Oregon"
FLAGS DCP
INDEX 00 05:50:67
FILE "04 Creeper.wav" WAVE
INDEX 01 00:00:00
TRACK 05 AUDIO
TITLE "Jurassic"
PERFORMER "Oregon"
FLAGS DCP
INDEX 00 05:31:02
FILE "05 Jurassic.wav" WAVE
INDEX 01 00:00:00
TRACK 06 AUDIO
TITLE "Family tree"
PERFORMER "Oregon"
FLAGS DCP
INDEX 00 02:24:14
FILE "06 Family tree.wav" WAVE
INDEX 01 00:00:00
TRACK 07 AUDIO
TITLE "Stritch"
PERFORMER "Oregon"
FLAGS DCP
INDEX 00 06:28:55
FILE "07 Stritch.wav" WAVE
INDEX 01 00:00:00
TRACK 08 AUDIO
TITLE "Mirror pond"
PERFORMER "Oregon"
FLAGS DCP
INDEX 00 02:44:68
FILE "08 Mirror pond.wav" WAVE
INDEX 01 00:00:00
TRACK 09 AUDIO
TITLE "Moot"
PERFORMER "Oregon"
FLAGS DCP
INDEX 00 05:49:56
FILE "09 Moot.wav" WAVE
INDEX 01 00:00:00
TRACK 10 AUDIO
TITLE "Julian"
PERFORMER "Oregon"
FLAGS DCP
INDEX 00 05:45:67
FILE "10 Julian.wav" WAVE
INDEX 01 00:00:00
TRACK 11 AUDIO
TITLE "Max Alert"
PERFORMER "Oregon"
FLAGS DCP
INDEX 00 04:26:70
FILE "11 Max Alert.wav" WAVE
INDEX 01 00:00:00
TRACK 12 AUDIO
TITLE "Carnival express"
PERFORMER "Oregon"
FLAGS DCP
INDEX 00 01:03:34
FILE "12 Carnival express.wav" WAVE
INDEX 01 00:00:00
 
auCDtect Task Manager
-----------------------
DON'T MODIFY THIS FILE
-----------------------
PERFORMER: auCDtect Task Manager, ver. 1.5.1RC6 build 1.5.1.7
Copyright (c) 2008-2010 y-soft. All rights reserved
http://y-soft.org
ANALYZER: auCDtect: CD records authenticity detector, version 0.8.2
Copyright (c) 2004 Oleg Berngardt. All rights reserved.
Copyright (c) 2004 Alexander Djourik. All rights reserved.
FILE: 12 Carnival express.flac
Size: 61234091 Hash: E368D8858637844706249C9B8BD4016A Accuracy: -m0
Conclusion: CDDA 100%
Signature: D355A9E44596D80992BC3E5B7DE15AE6BB16B16D
FILE: 11 Max Alert.flac
Size: 6645009 Hash: 5AD09E96430024CEDDA3B4BBE1C0DEF7 Accuracy: -m0
Conclusion: CDDA 100%
Signature: 74EDC88D2DA05D47E71849AB08FE8E3DE21C5352
FILE: 10 Julian.flac
Size: 31299322 Hash: C2F4FC55BC674C87BCA9E35B31173FD0 Accuracy: -m0
Conclusion: CDDA 100%
Signature: 84E491CC9CCF531E81C421E76B6B2743839CB83C
FILE: 09 Moot.flac
Size: 38988217 Hash: 8C703A2EAA341D8D7A308FB0251B482A Accuracy: -m0
Conclusion: CDDA 100%
Signature: E88F57850479FF328A513C754D3F543A507EAE29
FILE: 08 Mirror pond.flac
Size: 36656543 Hash: C31AF1F3A8168521544DFE60468DAF2D Accuracy: -m0
Conclusion: CDDA 100%
Signature: 8F0D79B57097B3D1D456D7079092543D38FBC039
FILE: 07 Stritch.flac
Size: 18931213 Hash: 58F7E1916A49F8485694F5CEFDD20C64 Accuracy: -m0
Conclusion: CDDA 100%
Signature: 8DC2D6FA88B920F6E46A8F2C91ACB5F406AFEDF8
FILE: 06 Family tree.flac
Size: 39218336 Hash: 769079C30801518FF2C77A6C4238EEE9 Accuracy: -m0
Conclusion: CDDA 100%
Signature: 05496C0FC60D0743479CB234710D9BF3300F5067
FILE: 05 Jurassic.flac
Size: 13127843 Hash: 19FDEA49C7F056E4D718EF24EFA9EC6B Accuracy: -m0
Conclusion: CDDA 100%
Signature: 85801AD0EE5E827907AC75B193B46C3F1CDFC784
FILE: 04 Creeper.flac
Size: 38556384 Hash: FD54F19F2FD413B44FFBD9108B3C9150 Accuracy: -m0
Conclusion: CDDA 100%
Signature: 9B8A6F8DF839324E93E3CAC7396D2011E9B43321
FILE: 03 The hexagram.flac
Size: 35434432 Hash: D2EFB8E36E267F65D42F3896C3D3FE5B Accuracy: -m0
Conclusion: CDDA 99%
Signature: 26A5781ABC9CFDFD51045CDE400FEAEB868193A8
FILE: 02 Tern.flac
Size: 36979838 Hash: ED07DC9E054F650089FC9D0114E0E783 Accuracy: -m0
Conclusion: CDDA 100%
Signature: FAFAAF5270EA6D83B9082852C6B5764FA5F445CB
FILE: 01 Bibo babo.flac
Size: 40889129 Hash: 6617DB619F86CBD2930EFA779A32B211 Accuracy: -m0
Conclusion: CDDA 100%
Signature: 41574263E822F1455F72D08C180BBAE838E91CD0
13:05
411
Нет комментариев. Ваш будет первым!