Поиск

(World Fusion, Avant-Garde Jazz) Egberto Gismonti - Saudacoes - 2009 (ECM 2082-83), FLAC (tracks+.cue), lossless

(World Fusion, Avant-Garde Jazz) Egberto Gismonti - Saudacoes - 2009 (ECM 2082-83), FLAC (tracks+.cue), lossless
Треклист:
Egberto Gismonti - Saudacoes
Жанр: Jazz
Стиль: World Fusion, Avant-Garde Jazz
Год выпуска диска: 2009
Лейбл: ECM Records; Catalog # ECM 2082-83
Аудио кодек: FLAC
Тип рипа: tracks+.cue
Битрейт аудио: lossless
Продолжительность: 02:25:40
Трэклист:
CD 1:
01.Sertoes Veredas I (13:31)
02.Sertoes Veredas II (12:35)
03.Sertoes Veredas III (09:04)
04.Sertoes Veredas IV (10:46)
05.Sertoes Veredas V (10:44)
06.Sertoes Veredas VI (09:56)
07.Sertoes Veredas VII Palhaco Na Caravela (08:56)
CD 2:
01.Lundu (04:03)
02.Mestico & Caboclo (13:05)
03.Dois Violoes (05:18)
04.Palhaco (06:53)
05.Danca Dos Escravos (08:14)
06.Chora Antonio (06:20)
07.Zig Zag (10:05)
08.Carmen (04:56)
09.Aguas & Danca (06:33)
10.Saudacoes (04:31)
 
скрытый текст
CD 1
X Lossless Decoder version 20090320 (105.1)
XLD extraction logfile from 2009-06-21 18:47:24 +0200
Egberto Gismonti / Saudacoes
Used drive : MATSHITA DVD-R UJ-85J (revision FAV1)
Use cdparanoia mode : YES (CDParanoia III 10.2 engine)
Disable audio cache : OK for the drive with cache less than 2750KB
Make use of C2 pointers : NO
Read offset correction : 102
Max retry count : 100
TOC of the extracted CD
Track | Start | Length | Start sector | End sector
---------------------------------------------------------
1 | 00:00:00 | 13:31:30 | 0 | 60854
2 | 13:31:30 | 12:35:68 | 60855 | 117547
3 | 26:07:23 | 09:04:60 | 117548 | 158407
4 | 35:12:08 | 10:46:68 | 158408 | 206925
5 | 45:59:01 | 10:44:72 | 206926 | 255297
6 | 56:43:73 | 09:56:56 | 255298 | 300053
7 | 66:40:54 | 08:56:28 | 300054 | 340281
All Tracks
Album gain : 0.65 dB
Peak : 0.966125
Track 01
Filename : /Users/Shared/RIPPED CDS/01 - Sertoes Veredas I.flac
Track gain : -1.46 dB
Peak : 0.966125
CRC32 hash (test run) : FBD6A3A4
CRC32 hash : FBD6A3A4
CRC32 hash (skip zero) : 812AD60E
AccurateRip signature : FD8C444C
->Track not present in AccurateRip database.
Statistics
Read error : 0
Skipped (treated as error) : 0
Edge jitter error (maybe fixed) : 0
Atom jitter error (maybe fixed) : 0
Drift error (maybe fixed) : 0
Dropped bytes error (maybe fixed) : 0
Duplicated bytes error (maybe fixed) : 0
Inconsistency in error sectors : 0
Track 02
Filename : /Users/Shared/RIPPED CDS/02 - Sertoes Veredas II.flac
Track gain : -0.03 dB
Peak : 0.966125
CRC32 hash (test run) : 54D66A1E
CRC32 hash : 54D66A1E
CRC32 hash (skip zero) : F02F4C4E
AccurateRip signature : 8308883A
->Track not present in AccurateRip database.
Statistics
Read error : 0
Skipped (treated as error) : 0
Edge jitter error (maybe fixed) : 0
Atom jitter error (maybe fixed) : 0
Drift error (maybe fixed) : 0
Dropped bytes error (maybe fixed) : 0
Duplicated bytes error (maybe fixed) : 0
Inconsistency in error sectors : 0
Track 03
Filename : /Users/Shared/RIPPED CDS/03 - Sertoes Veredas III.flac
Track gain : 2.80 dB
Peak : 0.744507
CRC32 hash (test run) : 76BE53EE
CRC32 hash : 76BE53EE
CRC32 hash (skip zero) : 6794AE5B
AccurateRip signature : CF4D9973
->Track not present in AccurateRip database.
Statistics
Read error : 0
Skipped (treated as error) : 0
Edge jitter error (maybe fixed) : 0
Atom jitter error (maybe fixed) : 0
Drift error (maybe fixed) : 0
Dropped bytes error (maybe fixed) : 0
Duplicated bytes error (maybe fixed) : 0
Inconsistency in error sectors : 0
Track 04
Filename : /Users/Shared/RIPPED CDS/04 - Sertoes Veredas IV.flac
Track gain : 1.95 dB
Peak : 0.966125
CRC32 hash (test run) : BC894883
CRC32 hash : BC894883
CRC32 hash (skip zero) : C2082330
AccurateRip signature : 4C3598D8
->Track not present in AccurateRip database.
Statistics
Read error : 0
Skipped (treated as error) : 0
Edge jitter error (maybe fixed) : 0
Atom jitter error (maybe fixed) : 0
Drift error (maybe fixed) : 0
Dropped bytes error (maybe fixed) : 0
Duplicated bytes error (maybe fixed) : 0
Inconsistency in error sectors : 0
Track 05
Filename : /Users/Shared/RIPPED CDS/05 - Sertoes Veredas V.flac
Track gain : 1.42 dB
Peak : 0.815277
CRC32 hash (test run) : D32CCB8A
CRC32 hash : D32CCB8A
CRC32 hash (skip zero) : 0BFBE9F6
AccurateRip signature : 1DCDB9A0
->Track not present in AccurateRip database.
Statistics
Read error : 0
Skipped (treated as error) : 0
Edge jitter error (maybe fixed) : 0
Atom jitter error (maybe fixed) : 0
Drift error (maybe fixed) : 0
Dropped bytes error (maybe fixed) : 0
Duplicated bytes error (maybe fixed) : 0
Inconsistency in error sectors : 0
Track 06
Filename : /Users/Shared/RIPPED CDS/06 - Sertoes Veredas VI.flac
Track gain : 0.70 dB
Peak : 0.909851
CRC32 hash (test run) : F28288D5
CRC32 hash : F28288D5
CRC32 hash (skip zero) : 03288A17
AccurateRip signature : 6944328F
->Track not present in AccurateRip database.
Statistics
Read error : 0
Skipped (treated as error) : 0
Edge jitter error (maybe fixed) : 0
Atom jitter error (maybe fixed) : 0
Drift error (maybe fixed) : 0
Dropped bytes error (maybe fixed) : 0
Duplicated bytes error (maybe fixed) : 0
Inconsistency in error sectors : 0
Track 07
Filename : /Users/Shared/RIPPED CDS/07 - Sertoes Veredas VII Palhaco Na Caravela.flac
Track gain : 2.63 dB
Peak : 0.659271
CRC32 hash (test run) : 3599E3A2
CRC32 hash : 3599E3A2
CRC32 hash (skip zero) : B9738812
AccurateRip signature : 61B1FFB1
->Track not present in AccurateRip database.
Statistics
Read error : 0
Skipped (treated as error) : 0
Edge jitter error (maybe fixed) : 0
Atom jitter error (maybe fixed) : 0
Drift error (maybe fixed) : 0
Dropped bytes error (maybe fixed) : 0
Duplicated bytes error (maybe fixed) : 0
Inconsistency in error sectors : 0
No errors occurred
End of status report
CD 2
X Lossless Decoder version 20090320 (105.1)
XLD extraction logfile from 2009-06-21 21:15:20 +0200
Egberto Gismonti / Saudacoes
Used drive : MATSHITA DVD-R UJ-85J (revision FAV1)
Use cdparanoia mode : YES (CDParanoia III 10.2 engine)
Disable audio cache : OK for the drive with cache less than 2750KB
Make use of C2 pointers : NO
Read offset correction : 102
Max retry count : 100
TOC of the extracted CD
Track | Start | Length | Start sector | End sector
---------------------------------------------------------
1 | 00:00:00 | 04:03:63 | 0 | 18287
2 | 04:03:63 | 13:05:04 | 18288 | 77166
3 | 17:08:67 | 05:18:13 | 77167 | 101029
4 | 22:27:05 | 06:53:64 | 101030 | 132068
5 | 29:20:69 | 08:14:60 | 132069 | 169178
6 | 37:35:54 | 06:20:27 | 169179 | 197705
7 | 43:56:06 | 10:05:63 | 197706 | 243143
8 | 54:01:69 | 04:56:41 | 243144 | 265384
9 | 58:58:35 | 06:33:11 | 265385 | 294870
10 | 65:31:46 | 04:31:49 | 294871 | 315244
All Tracks
Album gain : 1.03 dB
Peak : 0.966095
Track 01
Filename : /Users/Shared/RIPPED CDS/01 - Lundu.flac
Track gain : -0.81 dB
Peak : 0.966095
CRC32 hash (test run) : 1C3D1B41
CRC32 hash : 1C3D1B41
CRC32 hash (skip zero) : 5FE18F16
AccurateRip signature : B9E78A48
->Track not present in AccurateRip database.
Statistics
Read error : 0
Skipped (treated as error) : 0
Edge jitter error (maybe fixed) : 0
Atom jitter error (maybe fixed) : 0
Drift error (maybe fixed) : 0
Dropped bytes error (maybe fixed) : 0
Duplicated bytes error (maybe fixed) : 0
Inconsistency in error sectors : 0
Track 02
Filename : /Users/Shared/RIPPED CDS/02 - Mestico & Caboclo.flac
Track gain : 1.35 dB
Peak : 0.966064
CRC32 hash (test run) : 3D7BCBB1
CRC32 hash : 3D7BCBB1
CRC32 hash (skip zero) : E23CD083
AccurateRip signature : D331B5C3
->Track not present in AccurateRip database.
Statistics
Read error : 0
Skipped (treated as error) : 0
Edge jitter error (maybe fixed) : 0
Atom jitter error (maybe fixed) : 0
Drift error (maybe fixed) : 0
Dropped bytes error (maybe fixed) : 0
Duplicated bytes error (maybe fixed) : 0
Inconsistency in error sectors : 0
Track 03
Filename : /Users/Shared/RIPPED CDS/03 - Dois Violoes.flac
Track gain : 1.28 dB
Peak : 0.897125
CRC32 hash (test run) : 765C4589
CRC32 hash : 765C4589
CRC32 hash (skip zero) : A7BE4DCC
AccurateRip signature : A670A78D
->Track not present in AccurateRip database.
Statistics
Read error : 0
Skipped (treated as error) : 0
Edge jitter error (maybe fixed) : 0
Atom jitter error (maybe fixed) : 0
Drift error (maybe fixed) : 0
Dropped bytes error (maybe fixed) : 0
Duplicated bytes error (maybe fixed) : 0
Inconsistency in error sectors : 0
Track 04
Filename : /Users/Shared/RIPPED CDS/04 - Palhaco.flac
Track gain : 3.19 dB
Peak : 0.772614
CRC32 hash (test run) : 25FBFA66
CRC32 hash : 25FBFA66
CRC32 hash (skip zero) : 3979B917
AccurateRip signature : 73BB5A79
->Track not present in AccurateRip database.
Statistics
Read error : 0
Skipped (treated as error) : 0
Edge jitter error (maybe fixed) : 0
Atom jitter error (maybe fixed) : 0
Drift error (maybe fixed) : 0
Dropped bytes error (maybe fixed) : 0
Duplicated bytes error (maybe fixed) : 0
Inconsistency in error sectors : 0
Track 05
Filename : /Users/Shared/RIPPED CDS/05 - Danca Dos Escravos.flac
Track gain : 2.63 dB
Peak : 0.810822
CRC32 hash (test run) : 82327115
CRC32 hash : 82327115
CRC32 hash (skip zero) : 32DB8ACC
AccurateRip signature : 5ABA0B49
->Track not present in AccurateRip database.
Statistics
Read error : 0
Skipped (treated as error) : 0
Edge jitter error (maybe fixed) : 0
Atom jitter error (maybe fixed) : 0
Drift error (maybe fixed) : 0
Dropped bytes error (maybe fixed) : 0
Duplicated bytes error (maybe fixed) : 0
Inconsistency in error sectors : 0
Track 06
Filename : /Users/Shared/RIPPED CDS/06 - Chora Antonio.flac
Track gain : 3.52 dB
Peak : 0.767944
CRC32 hash (test run) : C6A79076
CRC32 hash : C6A79076
CRC32 hash (skip zero) : 4BF1CB5F
AccurateRip signature : 948A6B25
->Track not present in AccurateRip database.
Statistics
Read error : 0
Skipped (treated as error) : 0
Edge jitter error (maybe fixed) : 0
Atom jitter error (maybe fixed) : 0
Drift error (maybe fixed) : 0
Dropped bytes error (maybe fixed) : 0
Duplicated bytes error (maybe fixed) : 0
Inconsistency in error sectors : 0
Track 07
Filename : /Users/Shared/RIPPED CDS/07 - Zig Zag.flac
Track gain : 2.00 dB
Peak : 0.883026
CRC32 hash (test run) : 9A7BEB97
CRC32 hash : 9A7BEB97
CRC32 hash (skip zero) : 8D8DB2FB
AccurateRip signature : 4185F448
->Track not present in AccurateRip database.
Statistics
Read error : 0
Skipped (treated as error) : 0
Edge jitter error (maybe fixed) : 0
Atom jitter error (maybe fixed) : 0
Drift error (maybe fixed) : 0
Dropped bytes error (maybe fixed) : 0
Duplicated bytes error (maybe fixed) : 0
Inconsistency in error sectors : 0
Track 08
Filename : /Users/Shared/RIPPED CDS/08 - Carmen.flac
Track gain : -0.08 dB
Peak : 0.862579
CRC32 hash (test run) : 9A67F32F
CRC32 hash : 9A67F32F
CRC32 hash (skip zero) : DB94EDCE
AccurateRip signature : DBA14F05
->Track not present in AccurateRip database.
Statistics
Read error : 0
Skipped (treated as error) : 0
Edge jitter error (maybe fixed) : 0
Atom jitter error (maybe fixed) : 0
Drift error (maybe fixed) : 0
Dropped bytes error (maybe fixed) : 0
Duplicated bytes error (maybe fixed) : 0
Inconsistency in error sectors : 0
Track 09
Filename : /Users/Shared/RIPPED CDS/09 - Aguas & Danca.flac
Track gain : -0.38 dB
Peak : 0.683960
CRC32 hash (test run) : DEDE4301
CRC32 hash : DEDE4301
CRC32 hash (skip zero) : 836FD44A
AccurateRip signature : 6AC0A15C
->Track not present in AccurateRip database.
Statistics
Read error : 0
Skipped (treated as error) : 0
Edge jitter error (maybe fixed) : 0
Atom jitter error (maybe fixed) : 0
Drift error (maybe fixed) : 0
Dropped bytes error (maybe fixed) : 0
Duplicated bytes error (maybe fixed) : 0
Inconsistency in error sectors : 0
Track 10
Filename : /Users/Shared/RIPPED CDS/10 - Saudacoes.flac
Track gain : -0.37 dB
Peak : 0.851166
CRC32 hash (test run) : 3212EBE0
CRC32 hash : 3212EBE0
CRC32 hash (skip zero) : 7803F676
AccurateRip signature : 21A56638
->Track not present in AccurateRip database.
Statistics
Read error : 0
Skipped (treated as error) : 0
Edge jitter error (maybe fixed) : 0
Atom jitter error (maybe fixed) : 0
Drift error (maybe fixed) : 0
Dropped bytes error (maybe fixed) : 0
Duplicated bytes error (maybe fixed) : 0
Inconsistency in error sectors : 0
No errors occurred
End of status report
Download available for power users only.
07:44
169
Нет комментариев. Ваш будет первым!