Поиск

(Bossa Nova/Brazilian Jazz) Luiz Bonfa - Plays And Sings Bossa Nova - 1962,(24-bit dig.mastering-2000), APE (image+.cue), lossless

(Bossa Nova/Brazilian Jazz) Luiz Bonfa - Plays And Sings Bossa Nova - 1962,(24-bit dig.mastering-2000), APE (image+.cue), lossless
Треклист:
Luiz Bonfa - Plays And Sings Bossa Nova
Жанр: Bossa Nova/Brazilian Jazz
Год выпуска диска: 1962, (2000)
Производитель диска: USA
Аудио кодек: APE
Тип рипа: image+.cue
Битрейт аудио: lossless
Продолжительность: 00:35:45
Трэклист:

1. Samba De Duas Notas (Two Note Samba)
2. Vem Sу (Come Here, My Love)
3. Sambalamento
4. Tirsteza (Brazilian Blues)
5. Manhг De Carnaval (Morning Of The Carnival)
6. Silкncio Do Amor (The Silence Of Love)
7. Domingo A Noite (Sunday Night)
8. Ilha De Coral (Coral Island)
9. Adeus (Goodbye)
10. Quebra Mar (The Sea Wall)
11. Amor Que Acabou (The End Of Love)
12. Chora Tua Tristeza (Cry Your Blues Away)
13. Bossa Nova Cha Cha

Luiz Bonfa - guitar, vocal
Leo Wright - flute
Oscar Castro-Neves - piano, organ, guitar
Iko Castro-Neves - bass
Roberto Pontes-Dias - drums, percussion
Maria Helena Toledo - vocal
Lalo schifrin - arranger
 
Отчет EAC
Exact Audio Copy V0.99 prebeta 4 from 23. January 2008
Отчёт EAC об извлечении, выполненном 5. сентября 2009, 22:51
Luis Bonfб / Luis Bonfб Plays And Sings Bossa Nova
Дисковод: PLEXTOR DVDR PX-800A Adapter: 0 ID: 0
Режим чтения : Достоверность
Использование точного потока : Да
Отключение кэша аудио : Да
Использование указателей C2 : Нет
Коррекция смещения при чтении : 48
Способность читать области Lead-in и Lead-out : Нет
Заполнение пропущенных сэмплов тишиной : Да
Удаление блоков с тишиной в начале и конце : Нет
При вычислениях CRC использовались нулевые сэмплы : Да
Интерфейс : Встроенный Win32-интерфейс для Win NT/2000
Выходной формат : Внутренние WAV-операции
Формат сэмплов : 44.100 Гц; 16 бит; стерео
TOC извлечённого CD
Трек | Старт | Длительность | Начальный сектор | Конечный сектор
---------------------------------------------------------------------
1 | 0:00.00 | 2:47.10 | 0 | 12534
2 | 2:47.10 | 2:00.60 | 12535 | 21594
3 | 4:47.70 | 2:21.70 | 21595 | 32239
4 | 7:09.65 | 3:04.60 | 32240 | 46099
5 | 10:14.50 | 3:22.22 | 46100 | 61271
6 | 13:36.72 | 2:12.23 | 61272 | 71194
7 | 15:49.20 | 2:03.00 | 71195 | 80419
8 | 17:52.20 | 3:24.45 | 80420 | 95764
9 | 21:16.65 | 3:25.05 | 95765 | 111144
10 | 24:41.70 | 2:29.02 | 111145 | 122321
11 | 27:10.72 | 2:06.68 | 122322 | 131839
12 | 29:17.65 | 3:07.45 | 131840 | 145909
13 | 32:25.35 | 3:20.32 | 145910 | 160941
Характеристики диапазона извлечения и сообщения об ошибках
Выбранный диапазон
Имя файла D:\Lossless\Luiz Bonfa - Bossa Nova - 1962\Luis Bonfб - Luis Bonfб Plays And Sings Bossa Nova.wav
Пиковый уровень 99.8 %
Качество диапазона 100.0 %
CRC копии D58ACFA8
Копирование... OK
Ошибок не произошло
Конец отчёта
Рип c фирменного диска
Download available for power users only.
07:44
185
Нет комментариев. Ваш будет первым!