Поиск

(World Fusion, Arabic) [CD] Anouar Brahem - Souvenance - 2014 (ECM 2423-24), FLAC (tracks+.cue), lossless

(World Fusion, Arabic) [CD] Anouar Brahem - Souvenance - 2014 (ECM 2423-24), FLAC (tracks+.cue), lossless
Треклист:
Anouar Brahem - Souvenance
Жанр: World Fusion, Arabic
Носитель: CD
Страна-производитель диска (релиза): Германия
Год издания: 2014
Издатель (лейбл): ECM Records
Номер по каталогу: ECM 2423-24
Аудиокодек: FLAC (*.flac)
Тип рипа: tracks+.cue
Битрейт аудио: lossless
Продолжительность: 1:29:04
Источник (релизер): jlgt
Наличие сканов в содержимом раздачи: да
 
CD1 {51:49}
Треклист:
01. Improbable Day (Brahem) - 12:41
02. Ashen Sky (Brahem) - 7:37
03. Deliverance (Brahem) - 5:08
04. Souvenance (Brahem) - 9:17
05. Tunis at Dawn (Brahem) - 6:42
06. Youssef's Song (Brahem) - 10:24
 
Лог создания рипа
Exact Audio Copy V1.0 beta 3 from 29. August 2011
EAC extraction logfile from 13. December 2014, 1:06
Anouar Brahem / Souvenance CD1 [ECM 2423]
Used drive : PLEXTOR DVDR PX-891SA Adapter: 4 ID: 0
Read mode : Secure
Utilize accurate stream : Yes
Defeat audio cache : Yes
Make use of C2 pointers : No
Read offset correction : 6
Overread into Lead-In and Lead-Out : No
Fill up missing offset samples with silence : Yes
Delete leading and trailing silent blocks : No
Null samples used in CRC calculations : Yes
Used interface : Native Win32 interface for Win NT & 2000
Gap handling : Appended to previous track
Used output format : User Defined Encoder
Selected bitrate : 128 kBit/s
Quality : High
Add ID3 tag : No
Command line compressor : C:\Program Files (x86)\Exact Audio Copy\FLAC\FLAC.EXE
Additional command line options : -8 -V -T "ARTIST=%artist%" -T "TITLE=%title%" -T "ALBUM=%albumtitle%" -T "DATE=%year%" -T "TRACKNUMBER=%tracknr%" -T "TOTALTRACKS=%numtracks%" -T "GENRE=%genre%" -T "ALBUMARTIST=%albumartist%" -T "ALBUM ARTIST=%albumartist%" -T "COMMENT=EAC Secure Mode, Test & Copy, AccurateRip, FLAC -8" %source%
TOC of the extracted CD
Track | Start | Length | Start sector | End sector
---------------------------------------------------------
1 | 0:00.00 | 12:41.00 | 0 | 57074
2 | 12:41.00 | 7:36.55 | 57075 | 91329
3 | 20:17.55 | 5:07.58 | 91330 | 114412
4 | 25:25.38 | 9:16.65 | 114413 | 156177
5 | 34:42.28 | 6:42.29 | 156178 | 186356
6 | 41:24.57 | 10:23.65 | 186357 | 233146
Track 1
Filename L:\flac rips\01 - Improbable day.wav
Pre-gap length 0:00:02.00
Peak level 54.8 %
Extraction speed 6.5 X
Track quality 100.0 %
Test CRC 4BD2FBEA
Copy CRC 4BD2FBEA
Track not present in AccurateRip database
Copy OK
Track 2
Filename L:\flac rips\02 - Ashen sky.wav
Peak level 64.6 %
Extraction speed 7.6 X
Track quality 100.0 %
Test CRC 3FC00586
Copy CRC 3FC00586
Track not present in AccurateRip database
Copy OK
Track 3
Filename L:\flac rips\03 - Deliverance.wav
Peak level 54.6 %
Extraction speed 6.9 X
Track quality 99.9 %
Test CRC 1634811E
Copy CRC 1634811E
Track not present in AccurateRip database
Copy OK
Track 4
Filename L:\flac rips\04 - Souvenance.wav
Peak level 67.4 %
Extraction speed 9.2 X
Track quality 100.0 %
Test CRC 43487232
Copy CRC 43487232
Track not present in AccurateRip database
Copy OK
Track 5
Filename L:\flac rips\05 - Tunis at dawn.wav
Peak level 45.6 %
Extraction speed 8.6 X
Track quality 99.9 %
Test CRC 00DBABE6
Copy CRC 00DBABE6
Track not present in AccurateRip database
Copy OK
Track 6
Filename L:\flac rips\06 - Youssef's song.wav
Peak level 54.7 %
Extraction speed 9.8 X
Track quality 99.9 %
Test CRC D6CFCA09
Copy CRC D6CFCA09
Track not present in AccurateRip database
Copy OK
None of the tracks are present in the AccurateRip database
No errors occurred
End of status report
==== Log checksum 6B158B53CD3E02614DF5B20A9ED702A95091C2EBFB21B8D23E83289D7076355B ====
 
Содержание индексной карты (.CUE)
REM GENRE Jazz
REM DATE 2014
REM DISCID 500C2406
REM COMMENT "ExactAudioCopy v1.0b3"
PERFORMER "Anouar Brahem"
TITLE "Souvenance CD1"
FILE "01 - Improbable Day.wav" WAVE
TRACK 01 AUDIO
TITLE "Improbable Day"
PERFORMER "Anouar Brahem"
INDEX 01 00:00:00
FILE "02 - Ashen Sky.wav" WAVE
TRACK 02 AUDIO
TITLE "Ashen Sky"
PERFORMER "Anouar Brahem"
INDEX 01 00:00:00
FILE "03 - Deliverance.wav" WAVE
TRACK 03 AUDIO
TITLE "Deliverance"
PERFORMER "Anouar Brahem"
INDEX 01 00:00:00
FILE "04 - Souvenance.wav" WAVE
TRACK 04 AUDIO
TITLE "Souvenance"
PERFORMER "Anouar Brahem"
INDEX 01 00:00:00
FILE "05 - Tunis at Dawn.wav" WAVE
TRACK 05 AUDIO
TITLE "Tunis at Dawn"
PERFORMER "Anouar Brahem"
INDEX 01 00:00:00
FILE "06 - Youssef's Song.wav" WAVE
TRACK 06 AUDIO
TITLE "Youssef's Song"
PERFORMER "Anouar Brahem"
INDEX 01 00:00:00
 
Отчет CUETools
[CUETools log; Date: 22.12.2014 18:19:53; Version: 2.1.5]
[CTDB TOCID: hO_sJzT70rQHfGOBORKMdV3kDIs-] found.
Track | CTDB Status
1 | (6/6) Accurately ripped
2 | (6/6) Accurately ripped
3 | (6/6) Accurately ripped
4 | (6/6) Accurately ripped
5 | (6/6) Accurately ripped
6 | (6/6) Accurately ripped
[AccurateRip ID: 000ccb64-0042c916-500c2406] disk not present in database.
Track Peak [ CRC32 ] [W/O NULL] [ LOG ]
-- 67,4 [DC4B382F] [78F99441]
01 54,8 [4BD2FBEA] [AA33C522] CRC32
02 64,6 [3FC00586] [BD353D74] CRC32
03 54,6 [1634811E] [69649BC9] CRC32
04 67,4 [43487232] [53ACA036] CRC32
05 45,6 [00DBABE6] [072D99F5] CRC32
06 54,7 [D6CFCA09] [E3642361] CRC32
 
CD2 {37:15}
01. January (Brahem) - 7:20
02. Like a Dream (Brahem) - 9:40
03. On the Road (Brahem) - 7:59
04. Kasserine (Brahem) - 9:36
05. Nouvelle Vague (Brahem) - 2:40
 
Лог создания рипа
Exact Audio Copy V1.0 beta 3 from 29. August 2011
EAC extraction logfile from 13. December 2014, 1:24
Anouar Brahem / Souvenance CD2 [ECM 2424]
Used drive : PLEXTOR DVDR PX-891SA Adapter: 4 ID: 0
Read mode : Secure
Utilize accurate stream : Yes
Defeat audio cache : Yes
Make use of C2 pointers : No
Read offset correction : 6
Overread into Lead-In and Lead-Out : No
Fill up missing offset samples with silence : Yes
Delete leading and trailing silent blocks : No
Null samples used in CRC calculations : Yes
Used interface : Native Win32 interface for Win NT & 2000
Gap handling : Appended to previous track
Used output format : User Defined Encoder
Selected bitrate : 128 kBit/s
Quality : High
Add ID3 tag : No
Command line compressor : C:\Program Files (x86)\Exact Audio Copy\FLAC\FLAC.EXE
Additional command line options : -8 -V -T "ARTIST=%artist%" -T "TITLE=%title%" -T "ALBUM=%albumtitle%" -T "DATE=%year%" -T "TRACKNUMBER=%tracknr%" -T "TOTALTRACKS=%numtracks%" -T "GENRE=%genre%" -T "ALBUMARTIST=%albumartist%" -T "ALBUM ARTIST=%albumartist%" -T "COMMENT=EAC Secure Mode, Test & Copy, AccurateRip, FLAC -8" %source%
TOC of the extracted CD
Track | Start | Length | Start sector | End sector
---------------------------------------------------------
1 | 0:00.00 | 7:19.55 | 0 | 32979
2 | 7:19.55 | 9:40.24 | 32980 | 76503
3 | 17:00.04 | 7:59.10 | 76504 | 112438
4 | 24:59.14 | 9:35.49 | 112439 | 155612
5 | 34:34.63 | 2:40.29 | 155613 | 167641
Track 1
Filename L:\flac rips\01 - January.wav
Pre-gap length 0:00:02.00
Peak level 55.0 %
Extraction speed 5.9 X
Track quality 100.0 %
Test CRC 78AB9E33
Copy CRC 78AB9E33
Track not present in AccurateRip database
Copy OK
Track 2
Filename L:\flac rips\02 - Ashen sky.wav
Peak level 54.4 %
Extraction speed 6.6 X
Track quality 99.9 %
Test CRC 482DC0C8
Copy CRC 482DC0C8
Track not present in AccurateRip database
Copy OK
Track 3
Filename L:\flac rips\03 - On the road.wav
Peak level 60.8 %
Extraction speed 8.1 X
Track quality 100.0 %
Test CRC 07FD8BA9
Copy CRC 07FD8BA9
Track not present in AccurateRip database
Copy OK
Track 4
Filename L:\flac rips\04 - Kasserine.wav
Peak level 56.1 %
Extraction speed 8.4 X
Track quality 99.9 %
Test CRC 66F03BD1
Copy CRC 66F03BD1
Track not present in AccurateRip database
Copy OK
Track 5
Filename L:\flac rips\05 - Nouvelle vague.wav
Peak level 17.9 %
Extraction speed 8.3 X
Track quality 100.0 %
Test CRC EA079056
Copy CRC EA079056
Track not present in AccurateRip database
Copy OK
None of the tracks are present in the AccurateRip database
No errors occurred
End of status report
==== Log checksum 2108BABDD52A1AACC992E7C82F2E1AE6AFBBE3EE56E53DDD8FD9D55551E9F91D ====
 
Содержание индексной карты (.CUE)
REM GENRE Jazz
REM DATE 2014
REM DISCID 2608BB05
REM COMMENT "ExactAudioCopy v1.0b3"
PERFORMER "Anouar Brahem"
TITLE "Souvenance CD2"
FILE "01 - January.wav" WAVE
TRACK 01 AUDIO
TITLE "January"
PERFORMER "Anouar Brahem"
INDEX 01 00:00:00
FILE "02 - Like a Dream.wav" WAVE
TRACK 02 AUDIO
TITLE "Like a Dream"
PERFORMER "Anouar Brahem"
INDEX 01 00:00:00
FILE "03 - On the Road.wav" WAVE
TRACK 03 AUDIO
TITLE "On the Road"
PERFORMER "Anouar Brahem"
INDEX 01 00:00:00
FILE "04 - Kasserine.wav" WAVE
TRACK 04 AUDIO
TITLE "Kasserine"
PERFORMER "Anouar Brahem"
INDEX 01 00:00:00
FILE "05 - Nouvelle Vague.wav" WAVE
TRACK 05 AUDIO
TITLE "Nouvelle Vague"
PERFORMER "Anouar Brahem"
INDEX 01 00:00:00
 
Отчет CUETools
[CUETools log; Date: 22.12.2014 18:20:06; Version: 2.1.5]
[CTDB TOCID: ti8TD7EZPhbYpl_X_1buuh9Xm.c-] found.
Track | CTDB Status
1 | (6/6) Accurately ripped
2 | (6/6) Accurately ripped
3 | (6/6) Accurately ripped
4 | (6/6) Accurately ripped
5 | (6/6) Accurately ripped
[AccurateRip ID: 0008519a-0026977a-2608bb05] disk not present in database.
Track Peak [ CRC32 ] [W/O NULL] [ LOG ]
-- 60,8 [5B79ED8F] [EBCA6D09]
01 55,0 [78AB9E33] [68CDB51C] CRC32
02 54,4 [482DC0C8] [356A4392] CRC32
03 60,8 [07FD8BA9] [25F34286] CRC32
04 56,1 [66F03BD1] [62994027] CRC32
05 17,9 [EA079056] [C3CE30CF] CRC32
 
Об альбоме (сборнике)
The music of Souvenance, by turns graceful, hypnotic, and taut and starkly dramatic, was recorded in 2014 – six years after oud-master Anouar Brahem’s last ECM album, The Astounding Eyes of Rita. “It took a long time to write this music,” he acknowledges, noting that his emotional world had been usurped by the unfolding story of political upheaval sweeping first through Tunisia then through the neighbouring countries. Extraordinary waves of change, accompanied by great hopes and fears. “I don’t claim a direct link between my compositions and the events taking place in Tunisia,” says Anouar, “but I have been deeply affected by them.” New directions for the music find Franҫois Couturier returning to the Brahem group, frequently supported by subtle string orchestration. The strings have a glowing transparency and fragility in these pieces, often providing shimmering texture against which the contributions of the quartet members – and, above all, Anouar Brahem’s unique oud-playing – stand out in bold relief. This double album was recorded at the Lugano studio in May 2014, and produced by Manfred Eicher.
 
Состав
Anouar Brahem - oud
Francois Couturier - piano
Klaus Gesing - bass clarinet, soprano saxophone
Bjorn Meyer - bass
Orchestra della Svizzera Italiana
Pietro Mianiti - conductor
Recorded at Auditorio Stelio Molo RSI, Lugano in May 2014.
16:25
335
Нет комментариев. Ваш будет первым!