Поиск

(Latin Jazz, World Fusion, Vocal Jazz) [CD] Flora Purim - Butterfly Dreams (1973) - 2007 {Keepnews Collection}, FLAC (tracks+.cue), lossless

(Latin Jazz, World Fusion, Vocal Jazz) [CD] Flora Purim - Butterfly Dreams (1973) - 2007 {Keepnews Collection}, FLAC (tracks+.cue), lossless
Треклист:
Flora Purim - Butterfly Dreams (1973) Жанр: Latin Jazz, World Fusion, Vocal Jazz
Носитель: CD
Год издания: 2007
Издатель (лейбл): Concord/Milestone
Номер по каталогу: 0888072301849
Аудиокодек: FLAC (*.flac)
Тип рипа: tracks+.cue
Битрейт аудио: lossless
Продолжительность: 36:55
Rip by ruskaval
Наличие сканов в содержимом раздачи: да
Треклист:
01. Dr. Jive (part 1) (2:15)
02. Butterfly Dreams (7:01)
03. Dindi (3:37)
04. Summer Night (5:55)
05. Love Reborn (3:42)
06. Moon Dreams (5:01)
07. Dr. Jive (part 2) (3:40)
08. Light As A Feather (5:44)
Personnel:
Flora Purim - vo
Joe Henderson - fl, ts
George Duke - el-p, ac-p, clv, syn
David Amaro - el-g, ac-g
Ernie Hood - zth
Stanley Clarke - el-b, ac-b
Airto Moreira - d, perc
 
 
Лог создания рипа
Exact Audio Copy V1.0 beta 3 from 29. August 2011
EAC extraction logfile from 14. December 2014, 15:17
Flora Purim / Butterfly Dreams
Used drive : ATAPI iHAS124 B Adapter: 2 ID: 1
Read mode : Secure
Utilize accurate stream : Yes
Defeat audio cache : Yes
Make use of C2 pointers : No
Read offset correction : 6
Overread into Lead-In and Lead-Out : No
Fill up missing offset samples with silence : Yes
Delete leading and trailing silent blocks : No
Null samples used in CRC calculations : Yes
Used interface : Native Win32 interface for Win NT & 2000
Gap handling : Appended to previous track
Used output format : User Defined Encoder
Selected bitrate : 1024 kBit/s
Quality : High
Add ID3 tag : No
Command line compressor : C:\Program Files (x86)\FLAC Frontend\tools\flac.exe
Additional command line options : -8 -V -T "ARTIST=%artist%" -T "TITLE=%title%" -T "ALBUM=%albumtitle%" -T "DATE=%year%" -T "TRACKNUMBER=%tracknr%" -T "TOTALTRACKS=%numtracks%" -T "GENRE=%genre%" -T "ALBUMARTIST=%albumartist%" -T "ALBUM ARTIST=%albumartist%" -T "COMMENT=EAC Secure Mode, Test & Copy, AccurateRip, FLAC -8" %source%
TOC of the extracted CD
Track | Start | Length | Start sector | End sector
---------------------------------------------------------
1 | 0:00.00 | 2:15.30 | 0 | 10154
2 | 2:15.30 | 7:00.58 | 10155 | 41712
3 | 9:16.13 | 3:37.00 | 41713 | 57987
4 | 12:53.13 | 5:54.42 | 57988 | 84579
5 | 18:47.55 | 3:41.70 | 84580 | 101224
6 | 22:29.50 | 5:01.16 | 101225 | 123815
7 | 27:30.66 | 3:40.33 | 123816 | 140348
8 | 31:11.24 | 5:43.66 | 140349 | 166139
Track 1
Filename C:\Flora Purim - Butterfly Dreams (1973) {2007 Milestone} [Keepnews Collection Complete Series] (Item #8)\01 - Dr. Jive (part 1).wav
Pre-gap length 0:00:02.00
Peak level 100.0 %
Extraction speed 1.6 X
Track quality 100.0 %
Test CRC 76A8FE78
Copy CRC 76A8FE78
Accurately ripped (confidence 7) [0AE3EF28] (AR v2)
Copy OK
Track 2
Filename C:\Flora Purim - Butterfly Dreams (1973) {2007 Milestone} [Keepnews Collection Complete Series] (Item #8)\02 - Butterfly Dreams.wav
Peak level 98.0 %
Extraction speed 2.2 X
Track quality 100.0 %
Test CRC 8335E8B6
Copy CRC 8335E8B6
Accurately ripped (confidence 7) [6FB2BD23] (AR v2)
Copy OK
Track 3
Filename C:\Flora Purim - Butterfly Dreams (1973) {2007 Milestone} [Keepnews Collection Complete Series] (Item #8)\03 - Dindi.wav
Peak level 77.3 %
Extraction speed 2.3 X
Track quality 100.0 %
Test CRC B4A27BDC
Copy CRC B4A27BDC
Accurately ripped (confidence 7) [A5AFAB2B] (AR v2)
Copy OK
Track 4
Filename C:\Flora Purim - Butterfly Dreams (1973) {2007 Milestone} [Keepnews Collection Complete Series] (Item #8)\04 - Summer Night.wav
Peak level 100.0 %
Extraction speed 2.1 X
Track quality 99.9 %
Test CRC 9935A4DD
Copy CRC 9935A4DD
Accurately ripped (confidence 7) [1AF3C7D0] (AR v2)
Copy OK
Track 5
Filename C:\Flora Purim - Butterfly Dreams (1973) {2007 Milestone} [Keepnews Collection Complete Series] (Item #8)\05 - Love Reborn.wav
Peak level 100.0 %
Extraction speed 2.6 X
Track quality 100.0 %
Test CRC CE6CC1B6
Copy CRC CE6CC1B6
Accurately ripped (confidence 7) [0FE4BB2A] (AR v2)
Copy OK
Track 6
Filename C:\Flora Purim - Butterfly Dreams (1973) {2007 Milestone} [Keepnews Collection Complete Series] (Item #8)\06 - Moon Dreams.wav
Peak level 100.0 %
Extraction speed 2.9 X
Track quality 100.0 %
Test CRC BFA38ADC
Copy CRC BFA38ADC
Accurately ripped (confidence 7) [45BA37E0] (AR v2)
Copy OK
Track 7
Filename C:\Flora Purim - Butterfly Dreams (1973) {2007 Milestone} [Keepnews Collection Complete Series] (Item #8)\07 - Dr. Jive (part 2).wav
Peak level 100.0 %
Extraction speed 2.1 X
Track quality 99.9 %
Test CRC EBE32935
Copy CRC EBE32935
Accurately ripped (confidence 7) [2CAF0B37] (AR v2)
Copy OK
Track 8
Filename C:\Flora Purim - Butterfly Dreams (1973) {2007 Milestone} [Keepnews Collection Complete Series] (Item #8)\08 - Light as a Feather.wav
Peak level 100.0 %
Extraction speed 3.3 X
Track quality 100.0 %
Test CRC D1FE27F9
Copy CRC D1FE27F9
Accurately ripped (confidence 7) [9EB18B76] (AR v2)
Copy OK
All tracks accurately ripped
No errors occurred
End of status report
==== Log checksum B064604F4CC8B27150ADCEB0F213F6ECF93C1DA95F791E4F5A891F3840488711 ====
 
Содержание индексной карты (.CUE)
REM GENRE Jazz
REM DATE 1973
REM DISCID 6A08A708
REM COMMENT "ExactAudioCopy v1.0b3"
PERFORMER "Flora Purim"
TITLE "Butterfly Dreams"
FILE "01 - Dr. Jive (part 1).wav" WAVE
TRACK 01 AUDIO
TITLE "Dr. Jive (part 1)"
PERFORMER "Flora Purim"
INDEX 01 00:00:00
FILE "02 - Butterfly Dreams.wav" WAVE
TRACK 02 AUDIO
TITLE "Butterfly Dreams"
PERFORMER "Flora Purim"
INDEX 01 00:00:00
FILE "03 - Dindi.wav" WAVE
TRACK 03 AUDIO
TITLE "Dindi"
PERFORMER "Flora Purim"
INDEX 01 00:00:00
FILE "04 - Summer Night.wav" WAVE
TRACK 04 AUDIO
TITLE "Summer Night"
PERFORMER "Flora Purim"
INDEX 01 00:00:00
FILE "05 - Love Reborn.wav" WAVE
TRACK 05 AUDIO
TITLE "Love Reborn"
PERFORMER "Flora Purim"
INDEX 01 00:00:00
FILE "06 - Moon Dreams.wav" WAVE
TRACK 06 AUDIO
TITLE "Moon Dreams"
PERFORMER "Flora Purim"
INDEX 01 00:00:00
FILE "07 - Dr. Jive (part 2).wav" WAVE
TRACK 07 AUDIO
TITLE "Dr. Jive (part 2)"
PERFORMER "Flora Purim"
INDEX 01 00:00:00
FILE "08 - Light As A Feather.wav" WAVE
TRACK 08 AUDIO
TITLE "Light As A Feather"
PERFORMER "Flora Purim"
INDEX 01 00:00:00
16:24
259
Нет комментариев. Ваш будет первым!