Поиск

(World Fusion, Afro-Pop, Afro-Jazz, Highlife, Nigerian) [CD] Orlando Julius & His Modern Aces - Super Afro Soul 1966 - 2000, FLAC (tracks+.cue), lossless

Треклист:
Orlando Julius & His Modern Aces / Super Afro Soul
Жанр: World Fusion, Afro-Jazz, Highlife, Nigerian
Носитель: CD
Год издания: 2000
Издатель (лейбл): Strut
Номер по каталогу: STRUTACD 003
Страна исполнителя (группы): Nigeria
Аудиокодек: FLAC (*.flac)
Тип рипа: tracks+.cue
Битрейт аудио: lossless
Продолжительность: 00:46:11
Источник (релизер): theRadDept
Наличие сканов в содержимом раздачи: нет
Треклист:
01 - Mapami [3:07]
02 - Efoye So [3:16]
03 - Ise Owo [3:35]
04 - Solo Hit (Instrumental) [3:38]
05 - Oni Suru [3:16]
06 - Wakalole [3:47]
07 - Mafagbase Yeye [3:11]
08 - Bojubari [3:23]
09 - My Girl [3:28]
10 - Jagua Nana [3:34]
11 - Ijo Soul [3:00]
12 - Topless [3:00]
13 - Olulofe [2:55]
14 - Se Rere [2:59]
 
Лог создания рипа
Exact Audio Copy V0.99 prebeta 4 from 23. January 2008
EAC extraction logfile from 13. August 2008, 21:37
Orlando Julius & His Modern Aces / Super Afro Soul
Used drive : HL-DT-STDVDRAM GH20NS10 Adapter: 3 ID: 0
Read mode : Secure
Utilize accurate stream : Yes
Defeat audio cache : Yes
Make use of C2 pointers : No
Read offset correction : 667
Overread into Lead-In and Lead-Out : No
Fill up missing offset samples with silence : Yes
Delete leading and trailing silent blocks : No
Null samples used in CRC calculations : Yes
Used interface : Native Win32 interface for Win NT & 2000
Gap handling : Appended to previous track
Used output format : User Defined Encoder
Selected bitrate : 768 kBit/s
Quality : High
Add ID3 tag : No
Command line compressor : C:\Program Files\FLAC\flac.exe
Additional command line options : -V -8 -T "artist=%a" -T "title=%t" -T "album=%g" -T "date=%y" -T "tracknumber=%n" %s
TOC of the extracted CD
Track | Start | Length | Start sector | End sector
---------------------------------------------------------
1 | 0:00.00 | 3:06.45 | 0 | 13994
2 | 3:06.45 | 3:15.60 | 13995 | 28679
3 | 6:22.30 | 3:35.20 | 28680 | 44824
4 | 9:57.50 | 3:37.65 | 44825 | 61164
5 | 13:35.40 | 3:16.20 | 61165 | 75884
6 | 16:51.60 | 3:46.52 | 75885 | 92886
7 | 20:38.37 | 3:11.35 | 92887 | 107246
8 | 23:49.72 | 3:23.30 | 107247 | 122501
9 | 27:13.27 | 3:28.28 | 122502 | 138129
10 | 30:41.55 | 3:33.62 | 138130 | 154166
11 | 34:15.42 | 3:00.18 | 154167 | 167684
12 | 37:15.60 | 2:59.45 | 167685 | 181154
13 | 40:15.30 | 2:54.40 | 181155 | 194244
14 | 43:09.70 | 2:59.37 | 194245 | 207706
Track 1
Filename C:\Hi there RIAA, What's up IFPI\Orlando Julius & His Modern Aces - Super Afro Soul (Promo)\01 - Mapami.wav
Pre-gap length 0:00:02.00
Peak level 97.4 %
Track quality 99.9 %
Test CRC 43A33E96
Copy CRC 43A33E96
Track not present in AccurateRip database
Copy OK
Track 2
Filename C:\Hi there RIAA, What's up IFPI\Orlando Julius & His Modern Aces - Super Afro Soul (Promo)\02 - Efoye So.wav
Pre-gap length 0:00:02.64
Peak level 81.7 %
Track quality 100.0 %
Test CRC A93222B4
Copy CRC A93222B4
Track not present in AccurateRip database
Copy OK
Track 3
Filename C:\Hi there RIAA, What's up IFPI\Orlando Julius & His Modern Aces - Super Afro Soul (Promo)\03 - Ise Owo.wav
Pre-gap length 0:00:02.64
Peak level 81.7 %
Track quality 100.0 %
Test CRC 100A7DF7
Copy CRC 100A7DF7
Track not present in AccurateRip database
Copy OK
Track 4
Filename C:\Hi there RIAA, What's up IFPI\Orlando Julius & His Modern Aces - Super Afro Soul (Promo)\04 - Solo Hit (Instrumental).wav
Pre-gap length 0:00:02.64
Peak level 69.2 %
Track quality 100.0 %
Test CRC 0C587A14
Copy CRC 0C587A14
Track not present in AccurateRip database
Copy OK
Track 5
Filename C:\Hi there RIAA, What's up IFPI\Orlando Julius & His Modern Aces - Super Afro Soul (Promo)\05 - Oni Suru.wav
Pre-gap length 0:00:02.64
Peak level 75.6 %
Track quality 100.0 %
Test CRC E9D2CED1
Copy CRC E9D2CED1
Track not present in AccurateRip database
Copy OK
Track 6
Filename C:\Hi there RIAA, What's up IFPI\Orlando Julius & His Modern Aces - Super Afro Soul (Promo)\06 - Wakalole.wav
Pre-gap length 0:00:02.64
Peak level 73.4 %
Track quality 100.0 %
Test CRC 5DF4FFBA
Copy CRC 5DF4FFBA
Track not present in AccurateRip database
Copy OK
Track 7
Filename C:\Hi there RIAA, What's up IFPI\Orlando Julius & His Modern Aces - Super Afro Soul (Promo)\07 - Mafagbase Yeye.wav
Pre-gap length 0:00:02.62
Peak level 78.8 %
Track quality 100.0 %
Test CRC 937A429C
Copy CRC 937A429C
Track not present in AccurateRip database
Copy OK
Track 8
Filename C:\Hi there RIAA, What's up IFPI\Orlando Julius & His Modern Aces - Super Afro Soul (Promo)\08 - Bojubari.wav
Pre-gap length 0:00:02.62
Peak level 79.5 %
Track quality 100.0 %
Test CRC CCED2312
Copy CRC CCED2312
Track not present in AccurateRip database
Copy OK
Track 9
Filename C:\Hi there RIAA, What's up IFPI\Orlando Julius & His Modern Aces - Super Afro Soul (Promo)\09 - My Girl.wav
Pre-gap length 0:00:02.62
Peak level 73.7 %
Track quality 100.0 %
Test CRC B56C832E
Copy CRC B56C832E
Track not present in AccurateRip database
Copy OK
Track 10
Filename C:\Hi there RIAA, What's up IFPI\Orlando Julius & His Modern Aces - Super Afro Soul (Promo)\10 - Jagua Nana.wav
Pre-gap length 0:00:02.64
Peak level 68.7 %
Track quality 99.9 %
Test CRC 16A81A8E
Copy CRC 16A81A8E
Track not present in AccurateRip database
Copy OK
Track 11
Filename C:\Hi there RIAA, What's up IFPI\Orlando Julius & His Modern Aces - Super Afro Soul (Promo)\11 - Ijo Soul.wav
Pre-gap length 0:00:02.62
Peak level 81.2 %
Track quality 100.0 %
Test CRC 196ACBE3
Copy CRC 196ACBE3
Track not present in AccurateRip database
Copy OK
Track 12
Filename C:\Hi there RIAA, What's up IFPI\Orlando Julius & His Modern Aces - Super Afro Soul (Promo)\12 - Topless.wav
Pre-gap length 0:00:02.64
Peak level 53.5 %
Track quality 100.0 %
Test CRC 1A5862F6
Copy CRC 1A5862F6
Track not present in AccurateRip database
Copy OK
Track 13
Filename C:\Hi there RIAA, What's up IFPI\Orlando Julius & His Modern Aces - Super Afro Soul (Promo)\13 - Olulofe.wav
Pre-gap length 0:00:02.64
Peak level 65.8 %
Track quality 100.0 %
Test CRC BB71C5ED
Copy CRC BB71C5ED
Track not present in AccurateRip database
Copy OK
Track 14
Filename C:\Hi there RIAA, What's up IFPI\Orlando Julius & His Modern Aces - Super Afro Soul (Promo)\14 - Se Rere.wav
Pre-gap length 0:00:02.64
Peak level 82.0 %
Track quality 100.0 %
Test CRC 2976FC25
Copy CRC 2976FC25
Track not present in AccurateRip database
Copy OK
None of the tracks are present in the AccurateRip database
No errors occurred
End of status report
 
Содержание индексной карты (.CUE)
REM DATE 2000
REM DISCID B80AD10E
REM COMMENT "ExactAudioCopy v0.99pb4"
PERFORMER "Orlando Julius & His Modern Aces"
TITLE "Super Afro Soul"
FILE "01 - Mapami.flac" WAVE
TRACK 01 AUDIO
TITLE "Mapami"
PERFORMER "Orlando Julius & His Modern Aces"
INDEX 01 00:00:00
TRACK 02 AUDIO
TITLE "Efoye So"
PERFORMER "Orlando Julius & His Modern Aces"
INDEX 00 03:03:72
FILE "02 - Efoye So.flac" WAVE
INDEX 01 00:00:00
TRACK 03 AUDIO
TITLE "Ise Owo"
PERFORMER "Orlando Julius & His Modern Aces"
INDEX 00 03:13:12
FILE "03 - Ise Owo.flac" WAVE
INDEX 01 00:00:00
TRACK 04 AUDIO
TITLE "Solo Hit (Instrumental)"
PERFORMER "Orlando Julius & His Modern Aces"
INDEX 00 03:32:47
FILE "04 - Solo Hit (Instrumental).flac" WAVE
INDEX 01 00:00:00
TRACK 05 AUDIO
TITLE "Oni Suru"
PERFORMER "Orlando Julius & His Modern Aces"
INDEX 00 03:35:17
FILE "05 - Oni Suru.flac" WAVE
INDEX 01 00:00:00
TRACK 06 AUDIO
TITLE "Wakalole"
PERFORMER "Orlando Julius & His Modern Aces"
INDEX 00 03:13:47
FILE "06 - Wakalole.flac" WAVE
INDEX 01 00:00:00
TRACK 07 AUDIO
TITLE "Mafagbase Yeye"
PERFORMER "Orlando Julius & His Modern Aces"
INDEX 00 03:44:05
FILE "07 - Mafagbase Yeye.flac" WAVE
INDEX 01 00:00:00
TRACK 08 AUDIO
TITLE "Bojubari"
PERFORMER "Orlando Julius & His Modern Aces"
INDEX 00 03:08:63
FILE "08 - Bojubari.flac" WAVE
INDEX 01 00:00:00
TRACK 09 AUDIO
TITLE "My Girl"
PERFORMER "Orlando Julius & His Modern Aces"
INDEX 00 03:20:58
FILE "09 - My Girl.flac" WAVE
INDEX 01 00:00:00
TRACK 10 AUDIO
TITLE "Jagua Nana"
PERFORMER "Orlando Julius & His Modern Aces"
INDEX 00 03:25:55
FILE "10 - Jagua Nana.flac" WAVE
INDEX 01 00:00:00
TRACK 11 AUDIO
TITLE "Ijo Soul"
PERFORMER "Orlando Julius & His Modern Aces"
INDEX 00 03:31:15
FILE "11 - Ijo Soul.flac" WAVE
INDEX 01 00:00:00
TRACK 12 AUDIO
TITLE "Topless"
PERFORMER "Orlando Julius & His Modern Aces"
INDEX 00 02:57:45
FILE "12 - Topless.flac" WAVE
INDEX 01 00:00:00
TRACK 13 AUDIO
TITLE "Olulofe"
PERFORMER "Orlando Julius & His Modern Aces"
INDEX 00 02:56:72
FILE "13 - Olulofe.flac" WAVE
INDEX 01 00:00:00
TRACK 14 AUDIO
TITLE "Se Rere"
PERFORMER "Orlando Julius & His Modern Aces"
INDEX 00 02:51:67
FILE "14 - Se Rere.flac" WAVE
INDEX 01 00:00:00
 
Об исполнителе (группе)
Few artists have been more crucial to the invention, development, and popularization of Afro-pop than Orlando Julius. Starting in the '60s, Julius was fusing traditional African sounds and rhythms with those of American pop, soul, and R&B. Aside from performing and recording in his native Nigeria, he spent many years in the United States working on collaborations with Lamont Dozier, the Crusaders, and Hugh Masekela. His 1966 effort, Super Afro Soul, made him a national celebrity in Nigeria and even went so far as to influence music in the United States. The record's dramatic, highly melodic incorporation of soul, pop, and funk was very much ahead of its time, and some say that Super Afro Soul helped shape the funk movement that swept over the United States in subsequent years.
After Super Afro Soul, Julius released a long list of records exclusively in Nigeria and from them received a great amount of local fame. He went largely unnoticed by the international community until 2000, when Super Afro Soul was re-released on Strut and distributed throughout the world to wide critical acclaim. In 2011, his 1972 album Orlando Julius and the Afro Sounders was reissued by Voodoo Funk, and the artist increased his live activity at home and abroad. In early 2014, the Heliocentrics brought him to their all-analog studio in North London, where they backed him in a series of recordings that featured vintage tunes that had never been recorded as well as new compositions. Jaiyede Afro was issued in September. allmusic
strut-records
 
Об альбоме (сборнике)
The album that broke the mould in Nigeria in 1966 as saxophonist Orlando Julius embraced US R&B and fused it with highlife, kokoma rhythms, jazz and calypso, paving the way for a wave of new Afro soul and funk fusions across the country.
This new pressing echoes the previous Strut reissue from 2000, featuring the full original album along with four tracks issued on singles during 1965-66. Tracks include Orlando’s breakthrough domestic hit, ‘Jagua Nana’, the Afro cousin of James Brown’s ‘I Got You (I Feel Good)’ - ‘Ijo Soul’ and ‘E Se Rere’. This new edition comes fully remastered with fresh sleeve notes and Orlando Julius interview by Strut’s Quinton Scott along with archive photos.
Original album released on Phonogram Nigeria, 1966.
Tracks 11-14 are bonus tracks (released as singles, 1966).
Reissue mastered at Heathmans Mastering, London.
 
Состав
Claves – Adeleke
Congas – Oladele Davis
Drums – Akanbi Moses
Guitar – Adenyi Omilabu
Leader, Alto Saxophone – Orlando Julius
Maracas – Olusola Ololade
Tenor Saxophone – Skido Young
Trumpet – Eddy Fayehun, Francis Sama
16:28
298
Нет комментариев. Ваш будет первым!