Поиск

(World Fusion, Afro-Cuban Jazz) Cuban Roots - Cuban Roots Revisited - 1999, APE (image+.cue), lossless

Треклист:
Cuban Roots / Cuban Roots Revisited
Жанр: World Fusion, Afro-Cuban Jazz
Страна-производитель диска: Private Island Trax, Hollywood, California
Год издания диска: 1999
Издатель (лейбл): CuBop
Номер по каталогу: CBCD019
Аудиокодек: APE (*.ape)
Тип рипа: image+.cue
Битрейт аудио: lossless
Продолжительность: 00:51:22
Источник (релизер): dreadbull
Наличие сканов в содержимом раздачи: да
Треклист:
01. Eleggua [05:55]
02. malanga [06:05]
03. Mirala Que Linda Viene [03:35]
04. Ochosi-Omo-Mi [04:33]
05. Just Another Guajira [04:45]
06. Chango [06:14]
07. Desengano de los Roncos [06:05]
08. Ochun [07:10]
09. El Barracon [03:55]
10. Eleggua [03:00]
 
Лог создания рипа
EAC extraction logfile from 27. October 2010, 21:14 for CD
Cuban Roots / Cuban Roots Revisited
Used drive : PLEXTOR DVDR PX-750A Adapter: 0 ID: 1
Read mode : Secure with NO C2, accurate stream, disable cache
Read offset correction : 102
Overread into Lead-In and Lead-Out : No
Used output format : Internal WAV Routines
44.100 Hz; 16 Bit; Stereo
Other options :
Fill up missing offset samples with silence : Yes
Delete leading and trailing silent blocks : No
Installed external ASPI interface
Range status and errors
Selected range
Filename E:\Donkey Files\Cuban Roots Revisited (1999, CuBop) [eac-ape-scans] byDrBull\CDImage.wav
Peak level 99.9 %
Range quality 99.9 %
CRC 53663758
Copy OK
No errors occured
End of status report
 
Содержание индексной карты (.CUE)
PERFORMER "Cuban Roots"
TITLE "Cuban Roots Revisited"
FILE "CDImage.wav" WAVE
TRACK 01 AUDIO
TITLE "Eleggua"
PERFORMER "Cuban Roots"
INDEX 01 00:00:00
TRACK 02 AUDIO
TITLE "malanga"
PERFORMER "Cuban Roots"
INDEX 00 05:54:64
INDEX 01 05:55:34
TRACK 03 AUDIO
TITLE "Mirala Que Linda Viene"
PERFORMER "Cuban Roots"
INDEX 00 12:00:48
INDEX 01 12:01:18
TRACK 04 AUDIO
TITLE "Ochosi-Omo-Mi"
PERFORMER "Cuban Roots"
INDEX 00 15:34:60
INDEX 01 15:36:30
TRACK 05 AUDIO
TITLE "Just Another Guajira"
PERFORMER "Cuban Roots"
INDEX 00 20:09:30
INDEX 01 20:10:00
TRACK 06 AUDIO
TITLE "Chango"
PERFORMER "Cuban Roots"
INDEX 00 24:54:72
INDEX 01 24:55:42
TRACK 07 AUDIO
TITLE "Desengano de los Roncos"
PERFORMER "Cuban Roots"
INDEX 00 31:08:63
INDEX 01 31:09:72
TRACK 08 AUDIO
TITLE "Ochun"
PERFORMER "Cuban Roots"
INDEX 00 37:14:71
INDEX 01 37:15:41
TRACK 09 AUDIO
TITLE "El Barracon"
PERFORMER "Cuban Roots"
INDEX 00 44:25:19
INDEX 01 44:25:64
TRACK 10 AUDIO
TITLE "Eleggua"
PERFORMER "Cuban Roots"
INDEX 00 48:19:74
INDEX 01 48:21:44
 
Об исполнителе (группе)
by Steve Huey
Cuban Roots is a Latin jazz ensemble whose members include Mark Weinstein, Dan Weinstein, Francisco Aguabella, Humberto "Nengue" Hernandez, Omar Sosa, and John Santos. Their debut album, Cuban Roots Revisited, appeared in 1999.
 
Об альбоме (сборнике)
his album is partly tribute and partly modern remake of Mark Weinstein’s 1967 “Cuban Roots” (released in 1968 by Musicor), experimental recording of Afro-Cuban jazz in the finest sense of the word. It’s been the first jazz recording with pure Afro Cuban drumming (both sacred and secular) as a background; the great late Julito Collazo (1925-2004), babalawo (Santería priest) and olú batá (consecrated batá drummer for ceremonies), has blessed and led the drumming. (Cuban drummers had refused to play sacred rhythms in the secular jazz context until his permission.) CuBop’s first intention was to reissue this album but it was impossible because of damaged master tape and inaccessibility of the rights; so producer Michael McFadin proposed a remake instead.
New arrangements were made by Mark and his nephew trombonist/violinist Dan Weinstein. In 1967 Mark has played trombone; here he played flutes. Chick Corea who has played piano on 1967 session was substituted by the other great, Omar Sosa. Drums (Lázaro Galarraga, José de León Jr., John Santos, Humberto “Nengue” Hernández) were led by Collazo’s friend and colleague, the great late Francisco Aguabella (1925-2010), olú batá himself. Bass lines were recorded by Eddie Resto or Carlitos del Puerto (son of Irakere’s bassman).
The Beatles’ “Michelle” from the original album is omitted (it’s been made as rumba abierta - an obvious attempt to follow the fashion); new opening and closing numbers (both called “Eléggua”), and “Mirala que linda viene”, traditional conga habanera, are added. The basic principle remains the same: jazzy interpretation of both secular (Rumba, Conga) and sacred or secret (Nañigo, Iyesá) Afro Cuban rhythms.
 
Состав
Cuban Roots: Dan Weinstein (bass trumpet, trombone, violin); Arturo Velasco (trombone); Steve Ferguson (bass trombone); Mark Weinstein (flute, alto flute); Omar Sosa (piano); Eddie Resto, Carlitos del Puerto (bass); John Santos (congas, achere, guiro, chekere, kata, bombo, bell); Lazaro Galarraga (congas, bata, clave, quinto, bombo, bells); Jose De Leon (congas, snare, bata, clave, bells); Humberto "Nengue" Hernandez (congas, timbales, clave, bells); Francisco Aguabella (congas, bata, quinto)
22:42
317
Нет комментариев. Ваш будет первым!