Поиск

(World Fusion, Afro-beat, Ethnic Jazz, Soul, Acapella) Zap Mama - ReCreation - 2009, FLAC (image+.cue), lossless

(World Fusion, Afro-beat, Ethnic Jazz, Soul, Acapella) Zap Mama - ReCreation - 2009, FLAC (image+.cue), lossless
Треклист:
Zap Mama - ReCreation
Жанр: World Fusion, Afrobeat, Ethnic Jazz, Soul, Acapella
Год выпуска диска: 2009
Аудио кодек: FLAC
Тип рипа: image+.cue
Битрейт аудио: lossless
Продолжительность: 0:47:12
Трэклист:
01. ReCreation (1:16)
02. Vibrations (3:28)
03. Singing Sisters (feat. Sylvia Nawasadio and Sabine Kabongo) (3:40)
04. Hello to Mama (4:03)
05. Do You Wanna? (3:46)
06. The Way You Are (feat. Bilal) (4:22)
07. Paroles Paroles (feat. Vincent Cassel) (4:30)
08. Drifting (feat. G. Love) (3:41)
09. African Diamond (w/ Tony Allen & Meshell Ndegeocello) (4:11)
10. Harlem (2:41)
11. Togetherness (4:57)
12. Non, Non, Non (feat. Vincent Cassel) (3:51)
13. Chill Out (2:46)
 
EAC log
Exact Audio Copy V0.99 prebeta 5 from 4. May 2009
EAC extraction logfile from 19. September 2009, 19:01
Zap Mama / ReCreation
Used drive : HL-DT-STDVDRAM GSA-H10N Adapter: 1 ID: 0
Read mode : Secure
Utilize accurate stream : Yes
Defeat audio cache : Yes
Make use of C2 pointers : No
Read offset correction : 667
Overread into Lead-In and Lead-Out : No
Fill up missing offset samples with silence : Yes
Delete leading and trailing silent blocks : No
Null samples used in CRC calculations : Yes
Used interface : Native Win32 interface for Win NT & 2000
Used output format : Internal WAV Routines
Sample format : 44.100 Hz; 16 Bit; Stereo
TOC of the extracted CD
Track | Start | Length | Start sector | End sector
---------------------------------------------------------
1 | 0:00.00 | 1:16.02 | 0 | 5701
2 | 1:16.02 | 3:28.00 | 5702 | 21301
3 | 4:44.02 | 3:39.62 | 21302 | 37788
4 | 8:23.64 | 4:03.31 | 37789 | 56044
5 | 12:27.20 | 3:46.07 | 56045 | 73001
6 | 16:13.27 | 4:21.57 | 73002 | 92633
7 | 20:35.09 | 4:30.34 | 92634 | 112917
8 | 25:05.43 | 3:41.14 | 112918 | 129506
9 | 28:46.57 | 4:10.47 | 129507 | 148303
10 | 32:57.29 | 2:40.51 | 148304 | 160354
11 | 35:38.05 | 4:57.36 | 160355 | 182665
12 | 40:35.41 | 3:50.62 | 182666 | 199977
13 | 44:26.28 | 2:45.65 | 199978 | 212417
Range status and errors
Selected range
Filename G:\Zap Mama - ReCreation (2009)\Zap Mama - ReCreation.wav
Peak level 100.0 %
Range quality 100.0 %
Test CRC 0015D777
Copy CRC 0015D777
Copy OK
No errors occurred
AccurateRip summary
Track 1 accurately ripped (confidence 1) [AB65CB19]
Track 2 accurately ripped (confidence 1) [A1EE9937]
Track 3 accurately ripped (confidence 1) [F742EBB5]
Track 4 accurately ripped (confidence 1) [95CB850A]
Track 5 accurately ripped (confidence 1) [5A77F9AA]
Track 6 accurately ripped (confidence 1) [0C4E9C41]
Track 7 accurately ripped (confidence 1) [20BE93C2]
Track 8 accurately ripped (confidence 1) [68D00E74]
Track 9 accurately ripped (confidence 1) [6630E22B]
Track 10 accurately ripped (confidence 1) [48C4BC9A]
Track 11 accurately ripped (confidence 1) [DD1509E4]
Track 12 accurately ripped (confidence 1) [4C638987]
Track 13 accurately ripped (confidence 1) [171C4CAD]
All tracks accurately ripped
End of status report
 
Audiocheker's log
Started at: суббота, 26. 09. 2009. - 20:29.44
1 file found
1 -===- G:\Downloads\Zap Mama - ReCreation (2009)\Zap Mama - ReCreation.flac
Extracted successfully
Conclusion: this track is CDDA with probability 100%
Tempfile successfully deleted.
Finished at: суббота, 26. 09. 2009. - 20:41.23 (operation time: 0:11.39)
 
Log Accurip
[Verification date: 26.09.2009 20:43:50]
[Disc ID: 0015dc2c-00dfea78-c70b100d]
Track [ CRC ] Status
01 [ab65cb19] (01/01) Accurately ripped as in pressing(s) #1
02 [a1ee9937] (01/01) Accurately ripped as in pressing(s) #1
03 [f742ebb5] (01/01) Accurately ripped as in pressing(s) #1
04 [95cb850a] (01/01) Accurately ripped as in pressing(s) #1
05 [5a77f9aa] (01/01) Accurately ripped as in pressing(s) #1
06 [0c4e9c41] (01/01) Accurately ripped as in pressing(s) #1
07 [20be93c2] (01/01) Accurately ripped as in pressing(s) #1
08 [68d00e74] (01/01) Accurately ripped as in pressing(s) #1
09 [6630e22b] (01/01) Accurately ripped as in pressing(s) #1
10 [48c4bc9a] (01/01) Accurately ripped as in pressing(s) #1
11 [dd1509e4] (01/01) Accurately ripped as in pressing(s) #1
12 [4c638987] (01/01) Accurately ripped as in pressing(s) #1
13 [171c4cad] (01/01) Accurately ripped as in pressing(s) #1
Track [ CRC32 ] [W/O NULL] [ LOG ]
-- [0015D777] [6FF74A22] CRC32
01 [6DAFF53E] [4F3E4744]
02 [4E4F9072] [BAD13F4D]
03 [8A483B06] [AFE4EBAF]
04 [D8BF70BA] [D9902B1C]
05 [35CF3595] [790445A0]
06 [CD6C58EB] [C8331D2C]
07 [FF06AA4F] [70212B8C]
08 [0CC8107B] [28FEAE06]
09 [E5EFC98D] [158B887A]
10 [C94F4E85] [C6C1BCCE]
11 [1DD5CF29] [35ED6EC6]
12 [E5135BDD] [072A6690]
13 [15A8B432] [4152FF32]
Доп. информация:
Источник - ослосеть. Релизер - egotrsh.
За своевременную наводку спасибо bezdel*nik.
По всем вопросам пишите личное сообщение пользователю M0p94ok.
08:10
229
Нет комментариев. Ваш будет первым!