Поиск

(World Fusion, Afro-Beat) [CD] Alma Afrobeat Ensemble - Life No Get Dublicate - 2014, FLAC (tracks+.cue), lossless

(World Fusion, Afro-Beat) [CD] Alma Afrobeat Ensemble - Life No Get Dublicate - 2014, FLAC (tracks+.cue), lossless
Alma Afrobeat Ensemble - Life No Get Dublicate Жанр: World Fusion, Afro-Beat
Носитель: CD
Год издания: 2014
Издатель (лейбл): Slow Walk Music
Номер по каталогу: SLW003
Аудиокодек: FLAC (*.flac)
Тип рипа: tracks+.cue
Битрейт аудио: lossless
Продолжительность: 45:17
Rip by jlgt
Наличие сканов в содержимом раздачи: да
Треклист:
01. Blind Mind (7:52)
02. Topo (9:43)
03. Qsq (5:34)
04. Bursin (7:31)
05. Majority Whip (6:37)
06. Nena Mentein (7:59)
 
Лог создания рипа
Exact Audio Copy V1.0 beta 3 from 29. August 2011
EAC extraction logfile from 20. March 2016, 2:20
Alma Afrobeat Ensemble / Life No Get Dublicate
Used drive : PLEXTOR DVDR PX-L890SA Adapter: 5 ID: 1
Read mode : Secure
Utilize accurate stream : Yes
Defeat audio cache : Yes
Make use of C2 pointers : No
Read offset correction : 6
Overread into Lead-In and Lead-Out : No
Fill up missing offset samples with silence : Yes
Delete leading and trailing silent blocks : No
Null samples used in CRC calculations : Yes
Used interface : Native Win32 interface for Win NT & 2000
Gap handling : Appended to previous track
Used output format : User Defined Encoder
Selected bitrate : 128 kBit/s
Quality : High
Add ID3 tag : No
Command line compressor : C:\Program Files (x86)\Exact Audio Copy\FLAC\FLAC.EXE
Additional command line options : -8 -V -T "ARTIST=%artist%" -T "TITLE=%title%" -T "ALBUM=%albumtitle%" -T "DATE=%year%" -T "TRACKNUMBER=%tracknr%" -T "TOTALTRACKS=%numtracks%" -T "GENRE=%genre%" -T "ALBUMARTIST=%albumartist%" -T "ALBUM ARTIST=%albumartist%" -T "COMMENT=EAC Secure Mode, Test & Copy, AccurateRip, FLAC -8" %source%
TOC of the extracted CD
Track | Start | Length | Start sector | End sector
---------------------------------------------------------
1 | 0:00.00 | 7:52.36 | 0 | 35435
2 | 7:52.36 | 9:43.33 | 35436 | 79193
3 | 17:35.69 | 5:33.69 | 79194 | 104237
4 | 23:09.63 | 7:31.15 | 104238 | 138077
5 | 30:41.03 | 6:36.51 | 138078 | 167828
6 | 37:17.54 | 7:58.74 | 167829 | 203752
Track 1
Filename E:\01 - Blind Mind.wav
Pre-gap length 0:00:02.00
Peak level 98.9 %
Extraction speed 4.1 X
Track quality 100.0 %
Test CRC 1305EFF9
Copy CRC 1305EFF9
Track not present in AccurateRip database
Copy OK
Track 2
Filename E:\02 - Topo.wav
Pre-gap length 0:00:02.00
Peak level 100.0 %
Extraction speed 5.0 X
Track quality 100.0 %
Test CRC A1F77B94
Copy CRC A1F77B94
Track not present in AccurateRip database
Copy OK
Track 3
Filename E:\03 - Qsq.wav
Pre-gap length 0:00:02.00
Peak level 97.5 %
Extraction speed 5.3 X
Track quality 100.0 %
Test CRC 07F3162F
Copy CRC 07F3162F
Track not present in AccurateRip database
Copy OK
Track 4
Filename E:\04 - Bursin.wav
Pre-gap length 0:00:02.00
Peak level 98.5 %
Extraction speed 5.2 X
Track quality 99.9 %
Test CRC 9364C5E9
Copy CRC 9364C5E9
Track not present in AccurateRip database
Copy OK
Track 5
Filename E:\05 - Majority Whip.wav
Pre-gap length 0:00:02.00
Peak level 98.8 %
Extraction speed 6.3 X
Track quality 100.0 %
Test CRC AE1646CD
Copy CRC AE1646CD
Track not present in AccurateRip database
Copy OK
Track 6
Filename E:\06 - Nena Mentein.wav
Pre-gap length 0:00:02.00
Peak level 99.2 %
Extraction speed 6.8 X
Track quality 100.0 %
Test CRC 144ECBA8
Copy CRC 144ECBA8
Track not present in AccurateRip database
Copy OK
None of the tracks are present in the AccurateRip database
No errors occurred
End of status report
==== Log checksum 2A3661D6516E68AC6089099E45DC59B3008E095A1898553BDEEB0452905A9573 ====
 
Содержание индексной карты (.CUE)
REM GENRE Afrobeat
REM DATE 2014
REM DISCID 4C0A9C06
REM COMMENT "ExactAudioCopy v1.0b3"
PERFORMER "Alma Afrobeat Ensemble"
TITLE "Life No Get Dublicate"
FILE "01 - Blind Mind.wav" WAVE
TRACK 01 AUDIO
TITLE "Blind Mind"
PERFORMER "Alma Afrobeat Ensemble"
FLAGS DCP
INDEX 01 00:00:00
INDEX 02 07:46:60
TRACK 02 AUDIO
TITLE "Topo"
PERFORMER "Alma Afrobeat Ensemble"
FLAGS DCP
INDEX 00 07:50:36
FILE "02 - Topo.wav" WAVE
INDEX 01 00:00:00
INDEX 02 09:37:55
TRACK 03 AUDIO
TITLE "Qsq"
PERFORMER "Alma Afrobeat Ensemble"
FLAGS DCP
INDEX 00 09:41:33
FILE "03 - Qsq.wav" WAVE
INDEX 01 00:00:00
INDEX 02 05:23:58
TRACK 04 AUDIO
TITLE "Bursin"
PERFORMER "Alma Afrobeat Ensemble"
FLAGS DCP
INDEX 00 05:31:69
FILE "04 - Bursin.wav" WAVE
INDEX 01 00:00:00
INDEX 02 07:27:68
TRACK 05 AUDIO
TITLE "Majority Whip"
PERFORMER "Alma Afrobeat Ensemble"
FLAGS DCP
INDEX 00 07:29:15
FILE "05 - Majority Whip.wav" WAVE
INDEX 01 00:00:00
INDEX 02 06:32:26
TRACK 06 AUDIO
TITLE "Nena Mentein"
PERFORMER "Alma Afrobeat Ensemble"
FLAGS DCP
INDEX 00 06:34:51
FILE "06 - Nena Mentein.wav" WAVE
INDEX 01 00:00:00
INDEX 02 07:52:02
 
Состав
Baba Gaye: Lead Vocals
Fernando “Dinki” Redondo: bass
Gustavo “Tato” Sassone: Drums
Aarón Feder: Guitar, Backing Vocals
Didier Roch: Percussion
Paquito de la Iguana: Keys and Backing Vocals
Octavio Hernández: Guitar
Alfonso Fernández: Basson and Backing Vocals
Lucila Ciocoletto: Alto Sax, Lead Vocals (QSQ), Backing Vocals
Aurora Arenare: Trombone
& Featuring:
Audun Waage: Trumpet
Neal Niemiec: Tenor Sax
Stef "Farmo": Harmonica on "Bursine"
21:02
293
Нет комментариев. Ваш будет первым!