Поиск

(World Fusion, Afro-Beat) [CD] Alma Afrobeat Ensemble - It's Time - 2015, FLAC (tracks+.cue), lossless

(World Fusion, Afro-Beat) [CD] Alma Afrobeat Ensemble - It's Time - 2015, FLAC (tracks+.cue), lossless
Треклист:
Alma Afrobeat Ensemble - It's Time Жанр: World Fusion, Afro-Beat
Носитель: CD
Год издания: 2015
Издатель (лейбл): Slow Walk Music
Номер по каталогу: SLW105
Аудиокодек: FLAC (*.flac)
Тип рипа: tracks+.cue
Битрейт аудио: lossless
Продолжительность: 58:06
Rip by jlgt
Наличие сканов в содержимом раздачи: да
Треклист:
01. It's Time (6:48)
02. Live and Let's Live (8:12)
03. Shakedown (8:30)
04. Lost (8:34)
05. Siempre Presente (4:38)
06. DWB Breakdown (4:55)
07. Ain't It Time (3:48)
08. Lost In Dub (5:59)
09. Room Enough for Us (6:42)
 
 
Лог создания рипа
Exact Audio Copy V1.0 beta 3 from 29. August 2011
EAC extraction logfile from 5. March 2016, 11:47
Alma Afrobeat Ensemble / It's Time
Used drive : PLEXTOR DVDR PX-L890SA Adapter: 5 ID: 1
Read mode : Secure
Utilize accurate stream : Yes
Defeat audio cache : Yes
Make use of C2 pointers : No
Read offset correction : 6
Overread into Lead-In and Lead-Out : No
Fill up missing offset samples with silence : Yes
Delete leading and trailing silent blocks : No
Null samples used in CRC calculations : Yes
Used interface : Native Win32 interface for Win NT & 2000
Gap handling : Appended to previous track
Used output format : User Defined Encoder
Selected bitrate : 128 kBit/s
Quality : High
Add ID3 tag : No
Command line compressor : C:\Program Files (x86)\Exact Audio Copy\FLAC\FLAC.EXE
Additional command line options : -8 -V -T "ARTIST=%artist%" -T "TITLE=%title%" -T "ALBUM=%albumtitle%" -T "DATE=%year%" -T "TRACKNUMBER=%tracknr%" -T "TOTALTRACKS=%numtracks%" -T "GENRE=%genre%" -T "ALBUMARTIST=%albumartist%" -T "ALBUM ARTIST=%albumartist%" -T "COMMENT=EAC Secure Mode, Test & Copy, AccurateRip, FLAC -8" %source%
TOC of the extracted CD
Track | Start | Length | Start sector | End sector
---------------------------------------------------------
1 | 0:00.00 | 6:47.71 | 0 | 30595
2 | 6:47.71 | 8:12.18 | 30596 | 67513
3 | 15:00.14 | 8:30.19 | 67514 | 105782
4 | 23:30.33 | 8:33.46 | 105783 | 144303
5 | 32:04.04 | 4:37.41 | 144304 | 165119
6 | 36:41.45 | 4:54.64 | 165120 | 187233
7 | 41:36.34 | 3:48.12 | 187234 | 204345
8 | 45:24.46 | 5:59.12 | 204346 | 231282
9 | 51:23.58 | 6:41.71 | 231283 | 261428
Track 1
Filename E:\01 - It's Time.wav
Pre-gap length 0:00:02.00
Peak level 97.2 %
Extraction speed 2.0 X
Track quality 100.0 %
Test CRC DCC41FA5
Copy CRC DCC41FA5
Accurately ripped (confidence 1) [E7F46DFA] (AR v2)
Copy OK
Track 2
Filename E:\02 - Live and Let's Live.wav
Peak level 97.4 %
Extraction speed 2.4 X
Track quality 100.0 %
Test CRC 42CDFB4A
Copy CRC 42CDFB4A
Accurately ripped (confidence 1) [682D5B4A] (AR v2)
Copy OK
Track 3
Filename E:\03 - Shakedown.wav
Peak level 100.0 %
Extraction speed 2.3 X
Track quality 99.9 %
Test CRC 345F3A74
Copy CRC 345F3A74
Accurately ripped (confidence 1) [2901FD5E] (AR v2)
Copy OK
Track 4
Filename E:\04 - Lost.wav
Peak level 97.9 %
Extraction speed 2.6 X
Track quality 99.9 %
Test CRC 0A82AD54
Copy CRC 0A82AD54
Accurately ripped (confidence 1) [0B44D640] (AR v2)
Copy OK
Track 5
Filename E:\05 - Siempre Presente.wav
Peak level 93.0 %
Extraction speed 2.3 X
Track quality 99.9 %
Test CRC EBCA3486
Copy CRC EBCA3486
Accurately ripped (confidence 1) [A96B5768] (AR v2)
Copy OK
Track 6
Filename E:\06 - DWB Breakdown.wav
Peak level 96.2 %
Extraction speed 3.3 X
Track quality 100.0 %
Test CRC 67DAFFE8
Copy CRC 67DAFFE8
Accurately ripped (confidence 1) [1AABC8FA] (AR v2)
Copy OK
Track 7
Filename E:\07 - Ain't It Time.wav
Peak level 100.0 %
Extraction speed 3.3 X
Track quality 100.0 %
Test CRC 1381A8C6
Copy CRC 1381A8C6
Accurately ripped (confidence 1) [216662DC] (AR v2)
Copy OK
Track 8
Filename E:\08 - Lost In Dub.wav
Peak level 95.2 %
Extraction speed 3.6 X
Track quality 100.0 %
Test CRC A97518A4
Copy CRC A97518A4
Accurately ripped (confidence 1) [64568954] (AR v2)
Copy OK
Track 9
Filename E:\09 - Room Enough for Us.wav
Peak level 98.5 %
Extraction speed 3.9 X
Track quality 100.0 %
Test CRC 118CE7FF
Copy CRC 118CE7FF
Accurately ripped (confidence 1) [D6D9025D] (AR v2)
Copy OK
All tracks accurately ripped
No errors occurred
End of status report
==== Log checksum DDE2FFDC74BCD7DA090AAB61EF7563FB1A469049BE3029134AB61C2D5EAAAD1A ====
 
Содержание индексной карты (.CUE)
REM GENRE Afrobeat
REM DATE 2015
REM DISCID 730D9D09
REM COMMENT "ExactAudioCopy v1.0b3"
PERFORMER "Alma Afrobeat Ensemble"
TITLE "It's Time"
FILE "01 - It's Time.wav" WAVE
TRACK 01 AUDIO
TITLE "It's Time"
PERFORMER "Alma Afrobeat Ensemble"
INDEX 01 00:00:00
FILE "02 - Live and Let's Live.wav" WAVE
TRACK 02 AUDIO
TITLE "Live and Let's Live"
PERFORMER "Alma Afrobeat Ensemble"
INDEX 01 00:00:00
FILE "03 - Shakedown.wav" WAVE
TRACK 03 AUDIO
TITLE "Shakedown"
PERFORMER "Alma Afrobeat Ensemble"
INDEX 01 00:00:00
FILE "04 - Lost.wav" WAVE
TRACK 04 AUDIO
TITLE "Lost"
PERFORMER "Alma Afrobeat Ensemble"
INDEX 01 00:00:00
FILE "05 - Siempre Presente.wav" WAVE
TRACK 05 AUDIO
TITLE "Siempre Presente"
PERFORMER "Alma Afrobeat Ensemble"
INDEX 01 00:00:00
FILE "06 - DWB Breakdown.wav" WAVE
TRACK 06 AUDIO
TITLE "DWB Breakdown"
PERFORMER "Alma Afrobeat Ensemble"
INDEX 01 00:00:00
FILE "07 - Ain't It Time.wav" WAVE
TRACK 07 AUDIO
TITLE "Ain't It Time"
PERFORMER "Alma Afrobeat Ensemble"
INDEX 01 00:00:00
FILE "08 - Lost In Dub.wav" WAVE
TRACK 08 AUDIO
TITLE "Lost In Dub"
PERFORMER "Alma Afrobeat Ensemble"
INDEX 01 00:00:00
FILE "09 - Room Enough for Us.wav" WAVE
TRACK 09 AUDIO
TITLE "Room Enough for Us"
PERFORMER "Alma Afrobeat Ensemble"
INDEX 01 00:00:00
 
Состав
Aarón Feder: guitars
Alfonso Fernández: Basson and Backing Vocals
Aurora Arenare: Trombone and Backing Vocals
Didier Roch: Percussion
Fernando Redondo “Dinki”: bass
Gustavo “Tato” Sassone: Drums
Joe Psalmist: Voice
Josep "Puça" Contreras: Saxophones
Paquito de la Iguana: Keys and Backing Vocals
Valentina Sousa: Backing Vocals and Vocal arrangement
21:01
279
Нет комментариев. Ваш будет первым!