Поиск

(World Fusion, African Jazz, Modern Creative) Steve Reid Ensemble -Daxaar (Recorded In Africa) (feat. Jimi Mbaye & Kieran Hebden) - 2007, FLAC (tracks+.cue), lossless

(World Fusion, African Jazz, Modern Creative) Steve Reid Ensemble -Daxaar (Recorded In Africa) (feat. Jimi Mbaye & Kieran Hebden) - 2007, FLAC (tracks+.cue), lossless
Steve Reid Ensemble / Daxaar (Recorded In Africa)
Жанр: World Fusion, African Jazz, Modern Creative
Год издания: 2007
Издатель (лейбл): Domino USA
Номер по каталогу: DNO 165
Страна: USA
Аудиокодек: FLAC (*.flac)
Тип рипа: tracks+.cue
Битрейт аудио: lossless
Продолжительность: 44:45:35
Источник (релизер): MRmarket
Наличие сканов в содержимом раздачи: нет
Треклист:
1 Welcome (Kora, Vocals, Written-By – Isa Kouyate) 2:59
2 Daxaar 8:46
3 Jiggy Jiggy 8:58
4 Dabronxxar 10:22
5 Big G's Family 7:32
6 Don't Look Back 6:02
Daxaar Steve Reid Ensemble - Daxaar: Made In Africa
 
Лог создания рипа
Exact Audio Copy V0.99 prebeta 5 from 4. May 2009
EAC extraction logfile from 21. October 2009, 18:08
Steve Reid Ensemble / Daxaar
Used drive : HL-DT-STDVDRRW GSA-H30L Adapter: 1 ID: 0
Read mode : Secure
Utilize accurate stream : Yes
Defeat audio cache : Yes
Make use of C2 pointers : No
Read offset correction : 102
Overread into Lead-In and Lead-Out : Yes
Fill up missing offset samples with silence : Yes
Delete leading and trailing silent blocks : No
Null samples used in CRC calculations : Yes
Used interface : Installed external ASPI interface
Gap handling : Appended to previous track
Used output format : User Defined Encoder
Selected bitrate : 320 kBit/s
Quality : High
Add ID3 tag : No
Command line compressor : C:\Program Files\Exact Audio Copy\Flac\flac.exe
Additional command line options : -V -8 -T "artist=%a" -T "title=%t" -T "album=%g" -T "date=%y" -T "tracknumber=%n" -T "genre=%m" %s
TOC of the extracted CD
Track | Start | Length | Start sector | End sector
---------------------------------------------------------
1 | 0:00.00 | 2:59.02 | 0 | 13426
2 | 2:59.02 | 8:46.49 | 13427 | 52925
3 | 11:45.51 | 8:58.70 | 52926 | 93345
4 | 20:44.46 | 10:22.21 | 93346 | 140016
5 | 31:06.67 | 7:32.06 | 140017 | 173922
6 | 38:38.73 | 6:02.37 | 173923 | 201109
Track 1
Filename Z:\music\test\Steve Reid Ensemble\Daxaar\01. Welcome.wav
Pre-gap length 0:00:02.00
Peak level 100.0 %
Track quality 100.0 %
Test CRC C4D6502E
Copy CRC C4D6502E
Cannot be verified as accurate (confidence 2) [8E391F42], AccurateRip returned [76447908]
Copy OK
Track 2
Filename Z:\music\test\Steve Reid Ensemble\Daxaar\02. Daxaar.wav
Pre-gap length 0:00:03.48
Peak level 84.1 %
Track quality 99.9 %
Test CRC 1E82F7F7
Copy CRC 1E82F7F7
Cannot be verified as accurate (confidence 2) [7B7A5D95], AccurateRip returned [357A5766]
Copy OK
Track 3
Filename Z:\music\test\Steve Reid Ensemble\Daxaar\03. Jiggy Jiggy.wav
Peak level 100.0 %
Track quality 99.9 %
Test CRC 5D903554
Copy CRC 5D903554
Cannot be verified as accurate (confidence 2) [A1DC836D], AccurateRip returned [C00A1CCB]
Copy OK
Track 4
Filename Z:\music\test\Steve Reid Ensemble\Daxaar\04. Dabronxxar.wav
Pre-gap length 0:00:03.12
Peak level 100.0 %
Track quality 99.9 %
Test CRC D1451256
Copy CRC D1451256
Cannot be verified as accurate (confidence 2) [B944EC19], AccurateRip returned [CAEB38DD]
Copy OK
Track 5
Filename Z:\music\test\Steve Reid Ensemble\Daxaar\05. Big G's Family.wav
Pre-gap length 0:00:02.43
Peak level 100.0 %
Track quality 100.0 %
Test CRC D74726D0
Copy CRC D74726D0
Cannot be verified as accurate (confidence 2) [23020711], AccurateRip returned [ACA34771]
Copy OK
Track 6
Filename Z:\music\test\Steve Reid Ensemble\Daxaar\06. Don't Look Back.wav
Pre-gap length 0:00:05.70
Peak level 100.0 %
Track quality 100.0 %
Test CRC 88809C11
Copy CRC 88809C11
Cannot be verified as accurate (confidence 2) [A24EAC19], AccurateRip returned [074248D0]
Copy OK
No tracks could be verified as accurate
You may have a different pressing from the one(s) in the database
No errors occurred
End of status report
 
Содержание индексной карты (.CUE)
REM GENRE Jazz
REM DATE 2007
REM DISCID 450A7906
REM COMMENT "ExactAudioCopy v0.99pb5"
FILE "Steve Reid Ensemble\Daxaar\01. Welcome.wav" WAVE
TRACK 01 AUDIO
INDEX 01 00:00:00
TRACK 02 AUDIO
INDEX 00 02:55:29
FILE "Steve Reid Ensemble\Daxaar\02. Daxaar.wav" WAVE
INDEX 01 00:00:00
FILE "Steve Reid Ensemble\Daxaar\03. Jiggy Jiggy.wav" WAVE
TRACK 03 AUDIO
INDEX 01 00:00:00
TRACK 04 AUDIO
INDEX 00 08:55:58
FILE "Steve Reid Ensemble\Daxaar\04. Dabronxxar.wav" WAVE
INDEX 01 00:00:00
TRACK 05 AUDIO
INDEX 00 10:19:53
FILE "Steve Reid Ensemble\Daxaar\05. Big G's Family.wav" WAVE
INDEX 01 00:00:00
TRACK 06 AUDIO
INDEX 00 07:26:11
FILE "Steve Reid Ensemble\Daxaar\06. Don't Look Back.wav" WAVE
INDEX 01 00:00:00
 
Об альбоме (сборнике)
A drummer from the Bronx in Senegal should feel right at home, and Steve Reid apparently does on this collaboration, although he seems quite content to take a back seat, working with percussion and bass to build a platform for other instruments. There's no attempt to make the disc sound specifically African -- what comes out is a natural mix of the jamming between the musicians (except for "Welcome," which features Isa Koyate, vocals, and very distinctive kora). There are touches of funk, Afro-beat, jazz ("Jiggy Jiggy") -- just something amorphous, whose roots are definitely on one side of the Atlantic, but which have grown and developed elsewhere. The electronic touches tend to be more for effect and ornamentation than necessity. The question, of course, is what to make of all this. It's pleasant, but one of those instances where it was more fun for the musicians -- they certainly seem to be enjoying themselves. But the vamping and relative formlessness of the pieces mean that while they're pleasant as background, they don't sustain heavy listening. The playing is excellent (guitarist Jimi Mbaye is a slow burning standout), and as long as you don't expect anything earth-shattering, you won't be disappointed. A transitory pleasure.
by Chris Nickson
dominorecordco.us
 
Состав
Bass – Dembel Diop
Electronics – Kieran Hebden
Guitar – Jimi Mbaye
Keyboards – Boris Netsvetaev
Percussion – Khadim Badji
Producer – Kieran Hebden
Trumpet – Roger Ongolo
Written-By, Drums – Steve Reid (2) (tracks: 2 to 6)
04:03
375
Нет комментариев. Ваш будет первым!