Поиск

(Modern Creative, Structured Improvisation, Kalimba) Richard Crandell - Mbira Magic - 2004, FLAC (tracks+.cue), lossless

(Modern Creative, Structured Improvisation, Kalimba) Richard Crandell - Mbira Magic - 2004, FLAC (tracks+.cue), lossless
Треклист:
Richard Crandell / Mbira Magic
Жанр: Modern Creative, Structured Improvisation, Kalimba
Страна-производитель диска: US
Год издания: 2004
Издатель (лейбл): Tzadik
Номер по каталогу: 8005
Аудиокодек: FLAC (*.flac)
Тип рипа: tracks+.cue
Битрейт аудио: lossless
Продолжительность: 46:20
Источник (релизер): BitSnoop
Наличие сканов в содержимом раздачи: нет
Треклист:
1. Eleven - 11:47
2. Steelhead (Percussion – Cyro Baptista) - 3:20
3. Double Dose - 5:36
4. Message From Mozart - 3:54;
5. The Island (Percussion – Cyro Baptista) - 4:30
6. Bells (Percussion – Cyro Baptista) - 9:52
7. Attraction #1 - 4:12
8. Bolivian Lullaby - 3:04
 
Лог создания рипа
X Lossless Decoder version 20100323 (116.7)
XLD extraction logfile from 2010-03-30 11:02:53 -0400
Richard Crandell / Mbira Magic
Used drive : MATSHITA DVD-R UJ-825 (revision DBN7)
Use cdparanoia mode : YES (CDParanoia III 10.2 engine)
Disable audio cache : OK for the drive with cache less than 2750KB
Make use of C2 pointers : NO
Read offset correction : 102
Max retry count : 100
TOC of the extracted CD
Track | Start | Length | Start sector | End sector
---------------------------------------------------------
1 | 00:00:00 | 11:47:05 | 0 | 53029
2 | 11:47:05 | 03:20:70 | 53030 | 68099
3 | 15:08:00 | 05:36:36 | 68100 | 93335
4 | 20:44:36 | 03:51:51 | 93336 | 110711
5 | 24:36:12 | 04:31:38 | 110712 | 131074
6 | 29:07:50 | 09:53:47 | 131075 | 175596
7 | 39:01:22 | 04:13:43 | 175597 | 194614
8 | 43:14:65 | 03:04:02 | 194615 | 208416
Track 01
Filename : /Volumes/LaCie 1T/music/Richard Crandell-Mbira Magic (2004) FLAC/01 - Eleven.flac
Pre-gap length : 00:02:00
CRC32 hash (test run) : B461ABB8
CRC32 hash : B461ABB8
CRC32 hash (skip zero) : 0B81998C
AccurateRip signature : 56243693
->Accurately ripped! (confidence 1)
Statistics
Read error : 0
Skipped (treated as error) : 0
Edge jitter error (maybe fixed) : 0
Atom jitter error (maybe fixed) : 0
Drift error (maybe fixed) : 0
Dropped bytes error (maybe fixed) : 0
Duplicated bytes error (maybe fixed) : 0
Inconsistency in error sectors : 0
Track 02
Filename : /Volumes/LaCie 1T/music/Richard Crandell-Mbira Magic (2004) FLAC/02 - Double Dose.flac
CRC32 hash (test run) : E78A3376
CRC32 hash : E78A3376
CRC32 hash (skip zero) : B54CBFEB
AccurateRip signature : 7192E54D
->Accurately ripped! (confidence 1)
Statistics
Read error : 0
Skipped (treated as error) : 0
Edge jitter error (maybe fixed) : 0
Atom jitter error (maybe fixed) : 0
Drift error (maybe fixed) : 0
Dropped bytes error (maybe fixed) : 0
Duplicated bytes error (maybe fixed) : 0
Inconsistency in error sectors : 0
Track 03
Filename : /Volumes/LaCie 1T/music/Richard Crandell-Mbira Magic (2004) FLAC/03 - The Island.flac
CRC32 hash (test run) : D6AE2288
CRC32 hash : D6AE2288
CRC32 hash (skip zero) : E7133E52
AccurateRip signature : 44B5A87F
->Accurately ripped! (confidence 1)
Statistics
Read error : 0
Skipped (treated as error) : 0
Edge jitter error (maybe fixed) : 1
Atom jitter error (maybe fixed) : 1
Drift error (maybe fixed) : 0
Dropped bytes error (maybe fixed) : 0
Duplicated bytes error (maybe fixed) : 0
Inconsistency in error sectors : 0
Track 04
Filename : /Volumes/LaCie 1T/music/Richard Crandell-Mbira Magic (2004) FLAC/04 - Abstraction #1.flac
CRC32 hash (test run) : 2427CE34
CRC32 hash : 2427CE34
CRC32 hash (skip zero) : D0B23B1F
AccurateRip signature : 921821C8
->Accurately ripped! (confidence 1)
Statistics
Read error : 0
Skipped (treated as error) : 0
Edge jitter error (maybe fixed) : 0
Atom jitter error (maybe fixed) : 0
Drift error (maybe fixed) : 0
Dropped bytes error (maybe fixed) : 0
Duplicated bytes error (maybe fixed) : 0
Inconsistency in error sectors : 0
Track 05
Filename : /Volumes/LaCie 1T/music/Richard Crandell-Mbira Magic (2004) FLAC/05 - Steelhead.flac
CRC32 hash (test run) : 7C6463BB
CRC32 hash : 7C6463BB
CRC32 hash (skip zero) : 849C8DF8
AccurateRip signature : 4D4A7AFF
->Accurately ripped! (confidence 1)
Statistics
Read error : 0
Skipped (treated as error) : 0
Edge jitter error (maybe fixed) : 0
Atom jitter error (maybe fixed) : 0
Drift error (maybe fixed) : 0
Dropped bytes error (maybe fixed) : 0
Duplicated bytes error (maybe fixed) : 0
Inconsistency in error sectors : 0
Track 06
Filename : /Volumes/LaCie 1T/music/Richard Crandell-Mbira Magic (2004) FLAC/06 - Message From Mozart.flac
Pre-gap length : 00:01:03
CRC32 hash (test run) : D726D73B
CRC32 hash : D726D73B
CRC32 hash (skip zero) : 99E74BF9
AccurateRip signature : 29DFED72
->Accurately ripped! (confidence 1)
Statistics
Read error : 0
Skipped (treated as error) : 0
Edge jitter error (maybe fixed) : 0
Atom jitter error (maybe fixed) : 4
Drift error (maybe fixed) : 0
Dropped bytes error (maybe fixed) : 0
Duplicated bytes error (maybe fixed) : 0
Inconsistency in error sectors : 0
Track 07
Filename : /Volumes/LaCie 1T/music/Richard Crandell-Mbira Magic (2004) FLAC/07 - Bells.flac
CRC32 hash (test run) : D4D0F587
CRC32 hash : D4D0F587
CRC32 hash (skip zero) : BBD73BB8
AccurateRip signature : 476597FF
->Accurately ripped! (confidence 1)
Statistics
Read error : 0
Skipped (treated as error) : 0
Edge jitter error (maybe fixed) : 0
Atom jitter error (maybe fixed) : 0
Drift error (maybe fixed) : 0
Dropped bytes error (maybe fixed) : 0
Duplicated bytes error (maybe fixed) : 0
Inconsistency in error sectors : 0
Track 08
Filename : /Volumes/LaCie 1T/music/Richard Crandell-Mbira Magic (2004) FLAC/08 - Bolivian Lullaby.flac
Pre-gap length : 00:01:22
CRC32 hash (test run) : 6D49AF95
CRC32 hash : 6D49AF95
CRC32 hash (skip zero) : 1160EB80
AccurateRip signature : 9681C18E
->Accurately ripped! (confidence 1)
Statistics
Read error : 0
Skipped (treated as error) : 0
Edge jitter error (maybe fixed) : 0
Atom jitter error (maybe fixed) : 0
Drift error (maybe fixed) : 0
Dropped bytes error (maybe fixed) : 0
Duplicated bytes error (maybe fixed) : 0
Inconsistency in error sectors : 0
No errors occurred
End of status report
 
Содержание индексной карты (.CUE)
TITLE "Mbira Magic"
PERFORMER "Richard Crandell"
REM GENRE "Avant Garde"
REM DATE 2004
FILE "01 Eleven.wav" WAVE
TRACK 01 AUDIO
TITLE "Eleven"
INDEX 01 00:00:00
FILE "02 Steelhead.wav" WAVE
TRACK 02 AUDIO
TITLE "Steelhead"
INDEX 01 00:00:00
FILE "03 Double Dose.wav" WAVE
TRACK 03 AUDIO
TITLE "Double Dose"
INDEX 01 00:00:00
FILE "04 Message From Mozart.wav" WAVE
TRACK 04 AUDIO
TITLE "Message From Mozart"
INDEX 01 00:00:00
FILE "05 The Island.wav" WAVE
TRACK 05 AUDIO
TITLE "The Island"
INDEX 01 00:00:00
TRACK 06 AUDIO
TITLE "Bells"
INDEX 00 04:30:35
FILE "06 Bells.wav" WAVE
INDEX 01 00:00:00
FILE "07 Abstraction #1.wav" WAVE
TRACK 07 AUDIO
TITLE "Abstraction #1"
INDEX 01 00:00:00
TRACK 08 AUDIO
TITLE "Bolivian Lullaby"
INDEX 00 04:12:21
FILE "08 Bolivian Lullaby.wav" WAVE
INDEX 01 00:00:00
Доп. информация:
 
Об альбоме (сборнике)
Hypnotic and beautiful music for mbira from an American maverick in the Terry Riley/Harry Partch tradition.
A colleague of Leo Kottke, John Fahey and Thomas Mapfumo, Richard Crandell has been captivating audiences with his intricate mbira tapestries for years. Minimalism meets world music in this charming and delicate series of West Coast etudes for modified mbira.
 
Состав
Cyro Baptista: Percussion
Richard Crandell: Mbira
04:02
297
Нет комментариев. Ваш будет первым!