Вы используете незарегистрированную версию компонента "Вкладки"!

Поиск

(world, avant-garde)Evan Ziporyn - This Is Not A Clarinet 2001, FLAC (tracks+.cue), lossless

(world, avant-garde)Evan Ziporyn - This Is Not A Clarinet 2001, FLAC (tracks+.cue), lossless
Треклист:


Evan Ziporyn - This Is Not A Clarinet 2001

Жанр: world, avant-garde
Год выпуска: 2001
Издатель (лейбл):
Формат: FLAC (tracks+.cue)
Битрейт аудио: lossless
Продолжительность
Источник: what.cd

tracks

1. Partial Truths
Four Impersonations:
2. Honshirabe
3. Pengrangrang Gede
4. Thum Nyatiti
5. Bindu Semara
Three Island Duos by Michael Tenzer
6. Krk-y
7. Biak-words
8. Bouvet Fanfare
9. Press Release by David Lang



 
.log
Exact Audio Copy V1.0 beta 3 from 29. August 2011
EAC extraction logfile from 20. December 2014, 0:48
Evan Ziporyn / this is not a clarinet
Used drive : MATSHITADVD-RAM UJ8DB Adapter: 0 ID: 0
Read mode : Secure
Utilize accurate stream : Yes
Defeat audio cache : Yes
Make use of C2 pointers : No
Read offset correction : 6
Overread into Lead-In and Lead-Out : No
Fill up missing offset samples with silence : Yes
Delete leading and trailing silent blocks : No
Null samples used in CRC calculations : Yes
Used interface : Native Win32 interface for Win NT & 2000
Gap handling : Appended to previous track
Used output format : User Defined Encoder
Selected bitrate : 1024 kBit/s
Quality : High
Add ID3 tag : No
Command line compressor : C:\Program Files (x86)\Exact Audio Copy\Flac\flac.exe
Additional command line options : -8 -V -T "ARTIST=%artist%" -T "TITLE=%title%" -T "ALBUM=%albumtitle%" -T "DATE=%year%" -T "TRACKNUMBER=%tracknr%" -T "GENRE=%genre%" -T "PERFORMER=%albuminterpret%" -T "COMPOSER=%composer%" %haslyrics%--tag-from-file=LYRICS="%lyricsfile%"%haslyrics% -T "ALBUMARTIST=%albumartist%" -T "DISCNUMBER=%cdnumber%" -T "TOTALDISCS=%totalcds%" -T "TOTALTRACKS=%numtracks%" -T "COMMENT=%comment%" %source% -o %dest%
TOC of the extracted CD
Track | Start | Length | Start sector | End sector
---------------------------------------------------------
1 | 0:00.00 | 16:17.27 | 0 | 73301
2 | 16:17.27 | 4:03.48 | 73302 | 91574
3 | 20:21.00 | 5:26.47 | 91575 | 116071
4 | 25:47.47 | 2:23.48 | 116072 | 126844
5 | 28:11.20 | 5:22.37 | 126845 | 151031
6 | 33:33.57 | 2:39.18 | 151032 | 162974
7 | 36:13.00 | 3:03.42 | 162975 | 176741
8 | 39:16.42 | 4:15.25 | 176742 | 195891
9 | 43:31.67 | 9:20.55 | 195892 | 237946
Track 1
Filename C:\Users\Max\Desktop\What.CD Uploads\Evan Ziporyn - This Is Not A Clarinet FLAC\01 Partial Truths.wav
Pre-gap length 0:00:02.00
Peak level 76.0 %
Extraction speed 3.2 X
Track quality 99.9 %
Test CRC 4425E3A5
Copy CRC 4425E3A5
Accurately ripped (confidence 2) [A86F2339] (AR v1)
Copy OK
Track 2
Filename C:\Users\Max\Desktop\What.CD Uploads\Evan Ziporyn - This Is Not A Clarinet FLAC\02 Four Impersonations - Honshirabe.wav
Peak level 72.7 %
Extraction speed 3.1 X
Track quality 99.9 %
Test CRC 6D34AE72
Copy CRC 6D34AE72
Accurately ripped (confidence 1) [B8D194A5] (AR v2)
Copy OK
Track 3
Filename C:\Users\Max\Desktop\What.CD Uploads\Evan Ziporyn - This Is Not A Clarinet FLAC\03 Four Impersonations - Pengrangrang Gede.wav
Peak level 55.2 %
Extraction speed 4.0 X
Track quality 100.0 %
Test CRC C218FBC1
Copy CRC C218FBC1
Accurately ripped (confidence 2) [CBC26EE7] (AR v1)
Copy OK
Track 4
Filename C:\Users\Max\Desktop\What.CD Uploads\Evan Ziporyn - This Is Not A Clarinet FLAC\04 Four Impersonatons - Thum Nyatiti.wav
Peak level 47.3 %
Extraction speed 3.7 X
Track quality 100.0 %
Test CRC 4D1261A3
Copy CRC 4D1261A3
Accurately ripped (confidence 2) [72BD6BA4] (AR v1)
Copy OK
Track 5
Filename C:\Users\Max\Desktop\What.CD Uploads\Evan Ziporyn - This Is Not A Clarinet FLAC\05 Four Impersonations - Bindu Semara.wav
Peak level 35.8 %
Extraction speed 4.5 X
Track quality 100.0 %
Test CRC BF620B37
Copy CRC BF620B37
Accurately ripped (confidence 2) [4A7BBC52] (AR v1)
Copy OK
Track 6
Filename C:\Users\Max\Desktop\What.CD Uploads\Evan Ziporyn - This Is Not A Clarinet FLAC\06 Krk-y.wav
Peak level 77.7 %
Extraction speed 4.1 X
Track quality 100.0 %
Test CRC 426EFC9D
Copy CRC 426EFC9D
Accurately ripped (confidence 2) [4C3A8DAB] (AR v1)
Copy OK
Track 7
Filename C:\Users\Max\Desktop\What.CD Uploads\Evan Ziporyn - This Is Not A Clarinet FLAC\07 Blak-words.wav
Peak level 52.0 %
Extraction speed 3.5 X
Track quality 99.9 %
Test CRC E134C2F0
Copy CRC E134C2F0
Accurately ripped (confidence 2) [BC45864A] (AR v1)
Copy OK
Track 8
Filename C:\Users\Max\Desktop\What.CD Uploads\Evan Ziporyn - This Is Not A Clarinet FLAC\08 Bouvet Fanfare.wav
Peak level 80.1 %
Extraction speed 4.7 X
Track quality 100.0 %
Test CRC 8E289349
Copy CRC 8E289349
Accurately ripped (confidence 2) [31C4ECE1] (AR v1)
Copy OK
Track 9
Filename C:\Users\Max\Desktop\What.CD Uploads\Evan Ziporyn - This Is Not A Clarinet FLAC\09 Press Release.wav
Peak level 100.0 %
Extraction speed 5.0 X
Track quality 99.9 %
Test CRC 2C2D4513
Copy CRC 2C2D4513
Accurately ripped (confidence 1) [C572C6F4] (AR v2)
Copy OK
All tracks accurately ripped
No errors occurred
End of status report
---- CUETools DB Plugin V2.1.3
[CTDB TOCID: ikUwCSxAz430njzc8PtRTVxURZE-] found, Submit result: ikUwCSxAz430njzc8PtRTVxURZE- has been confirmed
[219ed1f3] (3/3) Accurately ripped
==== Log checksum D0C97DC87E29DAEDA0AB587B980414F4F8FF8D9B2942353B6FDFB90DABA25E94 ====
 
.cue
REM GENRE Other
REM DISCID 7E0C6409
REM COMMENT "ExactAudioCopy v1.0b3"
CATALOG 0000000000000
PERFORMER "Evan Ziporyn"
TITLE "this is not a clarinet"
FILE "01 Partial Truths.wav" WAVE
TRACK 01 AUDIO
TITLE "Partial Truths"
PERFORMER "Evan Ziporyn"
INDEX 01 00:00:00
FILE "02 Four Impersonations - Honshirabe.wav" WAVE
TRACK 02 AUDIO
TITLE "Four Impersonations - Honshirabe"
PERFORMER "Evan Ziporyn"
INDEX 01 00:00:00
FILE "03 Four Impersonations - Pengrangrang Gede.wav" WAVE
TRACK 03 AUDIO
TITLE "Four Impersonations - Pengrangrang Gede"
PERFORMER "Evan Ziporyn"
INDEX 01 00:00:00
FILE "04 Four Impersonatons - Thum Nyatiti.wav" WAVE
TRACK 04 AUDIO
TITLE "Four Impersonatons - Thum Nyatiti"
PERFORMER "Evan Ziporyn"
INDEX 01 00:00:00
FILE "05 Four Impersonations - Bindu Semara.wav" WAVE
TRACK 05 AUDIO
TITLE "Four Impersonations - Bindu Semara"
PERFORMER "Evan Ziporyn"
INDEX 01 00:00:00
FILE "06 Krk-y.wav" WAVE
TRACK 06 AUDIO
TITLE "Krk-y"
PERFORMER "Three Island Duos"
INDEX 01 00:00:00
FILE "07 Blak-words.wav" WAVE
TRACK 07 AUDIO
TITLE "Blak-words"
PERFORMER "Three Island Duos"
INDEX 01 00:00:00
FILE "08 Bouvet Fanfare.wav" WAVE
TRACK 08 AUDIO
TITLE "Bouvet Fanfare"
PERFORMER "Three Island Duos"
INDEX 01 00:00:00
FILE "09 Press Release.wav" WAVE
TRACK 09 AUDIO
TITLE "Press Release"
PERFORMER "David Lang"
INDEX 01 00:00:00
другие релизы
Any questions -> support@pro-jazz.com. По всем вопросам пишите -> support@pro-jazz.com
03:25
159
Нет комментариев. Ваш будет первым!