Вы используете незарегистрированную версию компонента "Вкладки"!

Поиск

(Free Jazz,Avant-garde,Soul, Funk) William Parker - I Plan To Stay A Believer: The Inside Songs of Curtis Mayfield (2CD) - 2010, APE (image+.cue), lossless

(Free Jazz,Avant-garde,Soul, Funk) William Parker - I Plan To Stay A Believer: The Inside Songs of Curtis Mayfield (2CD) - 2010, APE (image+.cue), lossless
Треклист:
William Parker / I Plan To Stay A Believer: The Inside Songs of Curtis Mayfield (2CD)
Жанр: Free Jazz,Avant-garde,Soul, Funk
Страна-производитель диска: USA
Год издания: 2010
Издатель (лейбл): AUM Fidelity
Номер по каталогу: AUM 062/063
Страна: USA
Аудиокодек: APE (*.ape)
Тип рипа: image+.cue
Битрейт аудио: lossless
Продолжительность: 73:07 + 66:47
Источник (релизер): мой рип
Наличие сканов в содержимом раздачи: нет
Треклист:
CD1:
01.I Plan To Stay A Believer 12:52
Curtis Mayfield
02.If There's A Hell Below 21:23
Curtis Mayfield
03.We The People Who Are Darker Than Blue 17:41
Curtis Mayfield
04.I'm So Proud/Ya He Yey Ya 15:15
Amiri Baraka / Curtis Mayfield
05.This Is My Country 5:44
Curtis Mayfield
CD2:
06.People Get Ready/The Inside Song 14:38
Amiri Baraka / Curtis Mayfield
07.This Is My Country 10:56
Curtis Mayfield
08.It's Alright 5:13
Curtis Mayfield
09.Move On Up 17:27
Curtis Mayfield
10.Freddie's Dead 11:26
Curtis Mayfield
11.New World Order 6:59
Curtis Mayfield
 
Лог создания рипа
Exact Audio Copy V0.99 prebeta 4 from 23. January 2008
Отчёт EAC об извлечении, выполненном 31. августа 2012, 10:46
William Parker / I Plan To Stay A Believer: The Inside Songs of Curtis Mayfield
Дисковод: TS8XDVDRTranscend Adapter: 6 ID: 0
Режим чтения : Достоверность
Использование точного потока : Да
Отключение кэша аудио : Да
Использование указателей C2 : Нет
Коррекция смещения при чтении : 6
Способность читать области Lead-in и Lead-out : Нет
Заполнение пропущенных сэмплов тишиной : Да
Удаление блоков с тишиной в начале и конце : Нет
При вычислениях CRC использовались нулевые сэмплы : Да
Интерфейс : Встроенный Win32-интерфейс для Win NT/2000
Выходной формат : Внутренние WAV-операции
Формат сэмплов : 44.100 Гц; 16 бит; стерео
TOC извлечённого CD
Трек | Старт | Длительность | Начальный сектор | Конечный сектор
---------------------------------------------------------------------
1 | 0:00.00 | 12:52.72 | 0 | 57971
2 | 12:52.72 | 21:27.18 | 57972 | 154514
3 | 34:20.15 | 17:43.69 | 154515 | 234308
4 | 52:04.09 | 15:19.60 | 234309 | 303293
5 | 67:23.69 | 5:44.01 | 303294 | 329094
Характеристики диапазона извлечения и сообщения об ошибках
Выбранный диапазон
Имя файла C:\Music\William Parker_I Plan To Stay Belivier_The Inside Songs of Curtis Mayfield\William Parker - I Plan To Stay A Believer The Inside Songs of Curtis Mayfield.wav
Пиковый уровень 98.5 %
Качество диапазона 99.9 %
CRC теста 50E40118
CRC копии 50E40118
Копирование... OK
Ошибок не произошло
AccurateRip: сводка
Трек 1 точное извлечение (доверие 2) [F3DF11DA]
Трек 2 точное извлечение (доверие 2) [D10F57E2]
Трек 3 точное извлечение (доверие 2) [0D32CD1E]
Трек 4 точное извлечение (доверие 2) [E980D413]
Трек 5 точное извлечение (доверие 2) [38508126]
Все треки извлечены точно
Конец отчёта
Exact Audio Copy V0.99 prebeta 4 from 23. January 2008
Отчёт EAC об извлечении, выполненном 31. августа 2012, 9:39
William Parker / I Plan To Stay A Believer: The Inside Songs of Curtis Mayfield - Disc 2
Дисковод: TS8XDVDRTranscend Adapter: 6 ID: 0
Режим чтения : Достоверность
Использование точного потока : Да
Отключение кэша аудио : Да
Использование указателей C2 : Нет
Коррекция смещения при чтении : 6
Способность читать области Lead-in и Lead-out : Нет
Заполнение пропущенных сэмплов тишиной : Да
Удаление блоков с тишиной в начале и конце : Нет
При вычислениях CRC использовались нулевые сэмплы : Да
Интерфейс : Встроенный Win32-интерфейс для Win NT/2000
Выходной формат : Внутренние WAV-операции
Формат сэмплов : 44.100 Гц; 16 бит; стерео
TOC извлечённого CD
Трек | Старт | Длительность | Начальный сектор | Конечный сектор
---------------------------------------------------------------------
1 | 0:00.00 | 14:38.11 | 0 | 65860
2 | 14:38.11 | 10:57.16 | 65861 | 115151
3 | 25:35.27 | 5:13.63 | 115152 | 138689
4 | 30:49.15 | 17:29.30 | 138690 | 217394
5 | 48:18.45 | 11:29.40 | 217395 | 269109
6 | 59:48.10 | 6:59.10 | 269110 | 300544
Характеристики диапазона извлечения и сообщения об ошибках
Выбранный диапазон
Имя файла C:\Music\William Parker_I Plan To Stay Belivier_The Inside Songs of Curtis Mayfield\William Parker - I Plan To Stay A Believer The Inside Songs of Curtis Mayfield - Disc 2.wav
Пиковый уровень 98.5 %
Качество диапазона 99.9 %
CRC теста 4C61675E
CRC копии 4C61675E
Копирование... OK
Ошибок не произошло
AccurateRip: сводка
Трек 1 точное извлечение (доверие 3) [55923492]
Трек 2 точное извлечение (доверие 3) [A05E6C89]
Трек 3 точное извлечение (доверие 3) [2D49F7D0]
Трек 4 точное извлечение (доверие 3) [B528542A]
Трек 5 точное извлечение (доверие 3) [F86F0440]
Трек 6 точное извлечение (доверие 3) [42A3F861]
Все треки извлечены точно
Конец отчёта
 
Содержание индексной карты (.CUE)
REM GENRE Jazz
REM DATE 2010
REM DISCID 37112305
REM COMMENT "ExactAudioCopy v0.99pb4"
PERFORMER "William Parker"
TITLE "I Plan To Stay A Believer: The Inside Songs of Curtis Mayfield"
FILE "William Parker - I Plan To Stay A Believer The Inside Songs of Curtis Mayfield.wav" WAVE
TRACK 01 AUDIO
TITLE "I Plan To Stay A Believer"
PERFORMER "William Parker"
INDEX 01 00:00:00
TRACK 02 AUDIO
TITLE "If There's A Hell Below "
PERFORMER "William Parker"
INDEX 01 12:52:72
TRACK 03 AUDIO
TITLE "We The People Who Are Darker Than Blue "
PERFORMER "William Parker"
INDEX 01 34:20:15
TRACK 04 AUDIO
TITLE "I'm So Proud \ Ya He Yey Ya"
PERFORMER "William Parker"
INDEX 01 52:04:09
TRACK 05 AUDIO
TITLE "This Is My Country (Paris)"
PERFORMER "William Parker"
INDEX 01 67:23:69
REM GENRE Jazz
REM DATE 2010
REM DISCID 4D0FA706
REM COMMENT "ExactAudioCopy v0.99pb4"
PERFORMER "William Parker"
TITLE "I Plan To Stay A Believer: The Inside Songs of Curtis Mayfield - Disc 2"
FILE "William Parker - I Plan To Stay A Believer The Inside Songs of Curtis Mayfield - Disc 2.wav" WAVE
TRACK 01 AUDIO
TITLE "People Get Ready \ The Inside Song"
PERFORMER "William Parker"
INDEX 01 00:00:00
TRACK 02 AUDIO
TITLE "This Is My Country"
PERFORMER "William Parker"
INDEX 01 14:38:11
TRACK 03 AUDIO
TITLE "It's Alright"
PERFORMER "William Parker"
INDEX 01 25:35:27
TRACK 04 AUDIO
TITLE "Move On Up"
PERFORMER "William Parker"
INDEX 01 30:49:15
TRACK 05 AUDIO
TITLE "Freddie's Dead"
PERFORMER "William Parker"
INDEX 01 48:18:45
TRACK 06 AUDIO
TITLE "New World Order"
PERFORMER "William Parker"
INDEX 01 59:48:10
 
Состав
Lewis Barnes trumpet
Sabir Mateen alto sax, tenor sax, flute exept 4,5,11
Darryl Foster tenor sax, soprano sax exept 5,11
Dave Burrell piano exept 1,2,5,11
William Parker bass, doson'ngoni, balafon
Hamid Drake drums exept 4
Leena Conquest vocals
Amiri Baraka: voice, poetry exept 1,2,5,11
Lafayette Gilchrist piano on 1,2
Guillermo E. Brown drums on 4
New Life Tabernacle Generation of Praise choir of Brooklyn, NY on 6,7
Any questions -> support@pro-jazz.com. По всем вопросам пишите -> support@pro-jazz.com
03:25
190
Нет комментариев. Ваш будет первым!