Поиск

(Vocal Jazz) [WEB] Matt Alber - How High The Moon - 2018, FLAC (tracks), lossless

(Vocal Jazz) [WEB] Matt Alber - How High The Moon - 2018, FLAC (tracks), lossless
Треклист:
Matt Alber
How High The Moon
'
Жанр: Vocal Jazz
Год издания: 2018
Издатель (лейбл): The Aeolian Hall
Страна исполнителя : USA
Аудиокодек: FLAC (*.flac)
Тип рипа: tracks
Битрейт аудио: lossless
Продолжительность: 42:38
Источник (релизер): WEB
Наличие сканов: нет
Треклист:
01. Don't Let That Moon Get Away
02. Moonlight Cocktail
03. The Moon Was Yellow
04. Moon Song
05. How High the Moon
06. Oh You Crazy Moon
07. Blue Moon
08. A Velvet Affair
09. I Wished on the Moon
10. No Moon at All
11. Moonlight in Vermont
12. Swingin' on the Moon
13. Believe Me
 
Лог проверки качества
AUDIOCHECKER v2.0 beta (build 457) - by Dester - opdester@freemail.hu
~~~~~~~~~~~~~~~~~~~~~~~~~~~~~~~~~~
-=== DO NOT EDIT THIS FILE! ===-
Path: ...\Matt Alber - How High the Moon (2018) [FLAC]
01 -=- 01 - Don't Let That Moon Get Away.flac -=- CDDA (100%)
02 -=- 02 - Moonlight Cocktail.flac -=- CDDA (100%)
03 -=- 03 - The Moon Was Yellow.flac -=- CDDA (99%)
04 -=- 04 - Moon Song.flac -=- CDDA (100%)
05 -=- 05 - How High the Moon.flac -=- CDDA (99%)
06 -=- 06 - Oh You Crazy Moon.flac -=- CDDA (100%)
07 -=- 07 - Blue Moon.flac -=- CDDA (100%)
08 -=- 08 - A Velvet Affair.flac -=- CDDA (100%)
09 -=- 09 - I Wished on the Moon.flac -=- CDDA (99%)
10 -=- 10 - No Moon at All.flac -=- CDDA (100%)
11 -=- 11 - Moonlight in Vermont.flac -=- CDDA (100%)
12 -=- 12 - Swingin' on the Moon.flac -=- CDDA (100%)
13 -=- 13 - Believe Me.flac -=- CDDA (100%)
Summary 99,77% CDDA
15218516
••••••••••
foobar2000 1.3.12 / Замер динамического диапазона (DR) 1.1.1
Дата отчёта: 2018-05-31 11:10:57
--------------------------------------------------------------------------------
Анализ: Matt Alber / How High the Moon
--------------------------------------------------------------------------------
DR Пики RMS Продолжительность трека
--------------------------------------------------------------------------------
DR9 -0.82 дБ -12.21 дБ 2:40 01-Don't Let That Moon Get Away
DR9 -0.96 дБ -11.83 дБ 3:18 02-Moonlight Cocktail
DR9 -0.67 дБ -10.97 дБ 2:52 03-The Moon Was Yellow
DR9 -0.86 дБ -10.85 дБ 3:15 04-Moon Song
DR10 -0.99 дБ -13.13 дБ 3:06 05-How High the Moon
DR9 -0.91 дБ -11.58 дБ 3:13 06-Oh You Crazy Moon
DR7 -0.86 дБ -9.94 дБ 3:44 07-Blue Moon
DR10 -0.80 дБ -12.85 дБ 2:49 08-A Velvet Affair
DR8 -0.91 дБ -12.21 дБ 3:55 09-I Wished on the Moon
DR8 -0.84 дБ -11.56 дБ 2:34 10-No Moon at All
DR7 -0.91 дБ -9.50 дБ 3:05 11-Moonlight in Vermont
DR8 -0.80 дБ -11.19 дБ 3:42 12-Swingin' on the Moon
DR8 -0.84 дБ -12.03 дБ 4:26 13-Believe Me
--------------------------------------------------------------------------------
Количество треков: 13
Реальные значения DR: DR8
Частота: 44100 Гц
Каналов: 2
Разрядность: 16
Битрейт: 779 кбит/с
Кодек: FLAC
================================================================================
 
Об альбоме
Experience the astounding vocals of Matt Alber along with the incredible sounds of London’s Prime Time Big Band in How High The Moon, a recreation of Mel Tormé’s “Swingin’ on the Moon” album from 1960.
Recorded in the historic Aeolian Hall, this album captures the beautiful sounds of Tormé’s iconic jazz style and gives new life to his album which is connected through one theme; The Magical Moon – in all of its moods.
All proceeds from the album directly benefit The El Sistema Aeolian Youth Program of London, Ontario. El Sistema Aeolian provides a free, intensive music program to over 100 students each year. Participants play in an orchestra, sing in a choir and learn valuable social skills.
When producer, Clark Bryan purchased Aeolian Hall in 2004, he had a dream to bring music into the lives of young people by inviting them to work with world-class performers who understand the power of mentoring and community. Clark is proud to call renowned vocalist Matt Alber a member of the family of artists dedicated to collaborating with these bright young stars.
How High The Moon is a new tribute album specially produced to support El Sistema Aeolian. It pays homage to two American Jazz legends, Mel Tormé and Russell Garcia, and features the Prime Time Big Band. Each moment you hear was recorded live on stage as a full ensemble at The Aeolian.
 
Состав
Matt Alber - vocals
& Prime Time Big Band
Приватный:
Нет (DHT включён)
Размер:
263.10 Мб (275,880,396 байт) » файлов: 15
Участники:
0 раздают, 0 качают (0 участников всего)
Внешние участники:
12 раздают, 4 качают (16 участников всего) [ Обновить ]
07:29
3
Нет комментариев. Ваш будет первым!