Поиск

(Vocal Jazz) [CD] Carmen McRae & Sammy Davis, Jr. - "Boy Meets Girl" (1957) & "Porgy and Bess" (1959) - 2005, FLAC (tracks+.cue), lossless

(Vocal Jazz) [CD] Carmen McRae & Sammy Davis, Jr. - "Boy Meets Girl" (1957) & "Porgy and Bess" (1959) - 2005, FLAC (tracks+.cue), lossless
Треклист:
Carmen McRae & Sammy Davis, Jr.
"Boy Meets Girl" (1957) & "Porgy and Bess" (1959)
Sammy Davis, Jr. & Carmen McRae on Decca
Жанр: Vocal Jazz
Носитель: CD
Страна-производитель диска (релиза): EU
Год издания: 2005
Издатель (лейбл): Verve Records
Номер по каталогу: 0731458954620
Страна исполнителя (группы): USA
Аудиокодек: FLAC (*.flac)
Тип рипа: tracks+.cue
Битрейт аудио: lossless
Продолжительность: 01:17:57
Источник (релизер): catfish27 (Redacted)
Наличие сканов в содержимом раздачи: Под "спойлером" фото обложки с Discogs.com.
 
Об альбоме (сборнике)
Диск состоит из 2-х полных альбомов: "Boy Meets Girl" (1957) и "Porgy and Bess" (1959).
 
Фото обложки с Discogs
 
Треклист
01. Happy to Make Your Acquaintance [3:15]
02. Tea for Two [2:37]
03. They Didn't Believe Me [2:57]
04. You're the Top [3:05]
05. Cheek to Cheek [4:01]
06. Baby, It's Cold Outside [3:14]
07. People Will Say We're in Love [3:20]
08. There's a Small Hotel [3:31]
09. A Fine Romance [2:56]
10. The Things We Did Last Summer [3:09]
11. Two Sleepy People [2:53]
12. Who Cares [2:37]
13. I Go for You [2:58]
14. Summertime [3:00]
15. A Woman Is a Sometime Thing [3:42]
16. My Man's Gone Now [4:18]
17. I Got Plenty O' Nuttin' [3:30]
18. Bess, You Is My Woman [4:53]
19. It Ain't Necessarily So [3:57]
20. I Loves You Porgy [3:50]
21. There's a Boat Dat's Leavin' Soon for New York [4:01]
22. Oh Bess, Where's My Bess [3:29]
23. Oh Lawd, I'm On My Way [2:44]
 
Лог создания рипа
X Lossless Decoder version 20161007 (149.3)
XLD extraction logfile from 2017-05-06 21:52:13 -0700
Sammy Davis, Jr. & Carmen McRae / Boy Meets Girl: The Complete Sammy Davis Jr. and Carmen McRae on Decca
Used drive : TSSTcorp BDDVDW SE-506BB (revision TS00)
Media type : Pressed CD
Ripper mode : XLD Secure Ripper
Disable audio cache : OK for the drive with a cache less than 1375KiB
Make use of C2 pointers : NO
Read offset correction : 6
Max retry count : 100
Gap status : Analyzed, Appended (except HTOA)
TOC of the extracted CD
Track | Start | Length | Start sector | End sector
---------------------------------------------------------
1 | 00:00:00 | 03:14:50 | 0 | 14599
2 | 03:14:50 | 02:37:15 | 14600 | 26389
3 | 05:51:65 | 02:56:65 | 26390 | 39654
4 | 08:48:55 | 03:05:18 | 39655 | 53547
5 | 11:53:73 | 04:00:65 | 53548 | 71612
6 | 15:54:63 | 03:14:30 | 71613 | 86192
7 | 19:09:18 | 03:19:45 | 86193 | 101162
8 | 22:28:63 | 03:30:39 | 101163 | 116951
9 | 25:59:27 | 02:55:50 | 116952 | 130126
10 | 28:55:02 | 03:09:08 | 130127 | 144309
11 | 32:04:10 | 02:53:18 | 144310 | 157302
12 | 34:57:28 | 02:36:41 | 157303 | 169043
13 | 37:33:69 | 02:58:15 | 169044 | 182408
14 | 40:32:09 | 03:00:21 | 182409 | 195929
15 | 43:32:30 | 03:41:73 | 195930 | 212577
16 | 47:14:28 | 04:18:37 | 212578 | 231964
17 | 51:32:65 | 03:30:03 | 231965 | 247717
18 | 55:02:68 | 04:52:61 | 247718 | 269678
19 | 59:55:54 | 03:57:17 | 269679 | 287470
20 | 63:52:71 | 03:49:59 | 287471 | 304704
21 | 67:42:55 | 04:01:15 | 304705 | 322794
22 | 71:43:70 | 03:28:60 | 322795 | 338454
23 | 75:12:55 | 02:44:36 | 338455 | 350790
AccurateRip Summary (DiscID: 003de162-0411d266-44124517)
Track 01 : OK (v1+v2, confidence 16/16)
Track 02 : OK (v1+v2, confidence 16/16)
Track 03 : OK (v1+v2, confidence 16/16)
Track 04 : OK (v1+v2, confidence 16/16)
Track 05 : OK (v1+v2, confidence 16/16)
Track 06 : OK (v1+v2, confidence 16/16)
Track 07 : OK (v1+v2, confidence 16/16)
Track 08 : OK (v1+v2, confidence 16/16)
Track 09 : OK (v1+v2, confidence 16/16)
Track 10 : OK (v1+v2, confidence 16/16)
Track 11 : OK (v1+v2, confidence 16/16)
Track 12 : OK (v1+v2, confidence 16/16)
Track 13 : OK (v1+v2, confidence 16/16)
Track 14 : OK (v1+v2, confidence 16/16)
Track 15 : OK (v1+v2, confidence 16/16)
Track 16 : OK (v1+v2, confidence 16/16)
Track 17 : OK (v1+v2, confidence 16/16)
Track 18 : OK (v1+v2, confidence 16/16)
Track 19 : OK (v1+v2, confidence 16/16)
Track 20 : OK (v1+v2, confidence 16/16)
Track 21 : OK (v1+v2, confidence 16/16)
Track 22 : OK (v1+v2, confidence 15/15)
Track 23 : OK (v1+v2, confidence 15/15)
->All tracks accurately ripped.
All Tracks
Album gain : -8.26 dB
Peak : 0.988495
Statistics
Read error : 0
Jitter error (maybe fixed) : 0
Retry sector count : 0
Damaged sector count : 0
Track 01
Filename : /Volumes/Hollywood and Vine/Rips/Sammy Davis, Jr. & Carmen McRae - Boy Meets Girl: The Complete Sammy Davis Jr. and Carmen McRae on Decca (2005) [FLAC]/01 Happy to Make Your Acquaintance.flac
Pre-gap length : 00:02:00
Track gain : -8.08 dB
Peak : 0.834137
CRC32 hash (test run) : 2B2F0DB4
CRC32 hash : 2B2F0DB4
CRC32 hash (skip zero) : 06D0B5C2
AccurateRip v1 signature : C2B9FBE4
AccurateRip v2 signature : 9BABB663
->Accurately ripped (v1+v2, confidence 10+6/16)
Statistics
Read error : 0
Jitter error (maybe fixed) : 0
Retry sector count : 0
Damaged sector count : 0
Track 02
Filename : /Volumes/Hollywood and Vine/Rips/Sammy Davis, Jr. & Carmen McRae - Boy Meets Girl: The Complete Sammy Davis Jr. and Carmen McRae on Decca (2005) [FLAC]/02 Tea for Two.flac
Pre-gap length : 00:02:57
Track gain : -8.78 dB
Peak : 0.835815
CRC32 hash (test run) : 1CA85CBB
CRC32 hash : 1CA85CBB
CRC32 hash (skip zero) : 27EEEBB9
AccurateRip v1 signature : B355393D
AccurateRip v2 signature : F02D004B
->Accurately ripped (v1+v2, confidence 10+6/16)
Statistics
Read error : 0
Jitter error (maybe fixed) : 0
Retry sector count : 0
Damaged sector count : 0
Track 03
Filename : /Volumes/Hollywood and Vine/Rips/Sammy Davis, Jr. & Carmen McRae - Boy Meets Girl: The Complete Sammy Davis Jr. and Carmen McRae on Decca (2005) [FLAC]/03 They Didn't Believe Me.flac
Pre-gap length : 00:02:56
Track gain : -8.17 dB
Peak : 0.818176
CRC32 hash (test run) : F3117F7C
CRC32 hash : F3117F7C
CRC32 hash (skip zero) : B45CD010
AccurateRip v1 signature : 6E5A7B54
AccurateRip v2 signature : AD34C9B5
->Accurately ripped (v1+v2, confidence 10+6/16)
Statistics
Read error : 0
Jitter error (maybe fixed) : 0
Retry sector count : 0
Damaged sector count : 0
Track 04
Filename : /Volumes/Hollywood and Vine/Rips/Sammy Davis, Jr. & Carmen McRae - Boy Meets Girl: The Complete Sammy Davis Jr. and Carmen McRae on Decca (2005) [FLAC]/04 You're the Top.flac
Pre-gap length : 00:02:56
Track gain : -8.99 dB
Peak : 0.847290
CRC32 hash (test run) : 4450DAB5
CRC32 hash : 4450DAB5
CRC32 hash (skip zero) : 37C067B3
AccurateRip v1 signature : 553F89BA
AccurateRip v2 signature : B7E7D27C
->Accurately ripped (v1+v2, confidence 10+6/16)
Statistics
Read error : 0
Jitter error (maybe fixed) : 0
Retry sector count : 0
Damaged sector count : 0
Track 05
Filename : /Volumes/Hollywood and Vine/Rips/Sammy Davis, Jr. & Carmen McRae - Boy Meets Girl: The Complete Sammy Davis Jr. and Carmen McRae on Decca (2005) [FLAC]/05 Cheek to Cheek.flac
Pre-gap length : 00:02:58
Track gain : -9.53 dB
Peak : 0.845947
CRC32 hash (test run) : 33437A39
CRC32 hash : 33437A39
CRC32 hash (skip zero) : 0B044A17
AccurateRip v1 signature : D786CE36
AccurateRip v2 signature : DC872DF1
->Accurately ripped (v1+v2, confidence 10+6/16)
Statistics
Read error : 0
Jitter error (maybe fixed) : 0
Retry sector count : 0
Damaged sector count : 0
Track 06
Filename : /Volumes/Hollywood and Vine/Rips/Sammy Davis, Jr. & Carmen McRae - Boy Meets Girl: The Complete Sammy Davis Jr. and Carmen McRae on Decca (2005) [FLAC]/06 Baby, It's Cold Outside.flac
Pre-gap length : 00:02:56
Track gain : -8.00 dB
Peak : 0.886993
CRC32 hash (test run) : 564E102A
CRC32 hash : 564E102A
CRC32 hash (skip zero) : 0194C556
AccurateRip v1 signature : 83545FB5
AccurateRip v2 signature : 21F71BEA
->Accurately ripped (v1+v2, confidence 10+6/16)
Statistics
Read error : 0
Jitter error (maybe fixed) : 0
Retry sector count : 0
Damaged sector count : 0
Track 07
Filename : /Volumes/Hollywood and Vine/Rips/Sammy Davis, Jr. & Carmen McRae - Boy Meets Girl: The Complete Sammy Davis Jr. and Carmen McRae on Decca (2005) [FLAC]/07 People Will Say We're in Love.flac
Pre-gap length : 00:02:58
Track gain : -7.19 dB
Peak : 0.855560
CRC32 hash (test run) : 50306186
CRC32 hash : 50306186
CRC32 hash (skip zero) : F4D09EC0
AccurateRip v1 signature : 43D3DD66
AccurateRip v2 signature : DB9E8356
->Accurately ripped (v1+v2, confidence 10+6/16)
Statistics
Read error : 0
Jitter error (maybe fixed) : 0
Retry sector count : 0
Damaged sector count : 0
Track 08
Filename : /Volumes/Hollywood and Vine/Rips/Sammy Davis, Jr. & Carmen McRae - Boy Meets Girl: The Complete Sammy Davis Jr. and Carmen McRae on Decca (2005) [FLAC]/08 There's a Small Hotel.flac
Pre-gap length : 00:02:56
Track gain : -7.28 dB
Peak : 0.806427
CRC32 hash (test run) : 12BCF6B2
CRC32 hash : 12BCF6B2
CRC32 hash (skip zero) : 1777FABE
AccurateRip v1 signature : 0C4E03AE
AccurateRip v2 signature : 64F372CA
->Accurately ripped (v1+v2, confidence 10+6/16)
Statistics
Read error : 0
Jitter error (maybe fixed) : 0
Retry sector count : 0
Damaged sector count : 0
Track 09
Filename : /Volumes/Hollywood and Vine/Rips/Sammy Davis, Jr. & Carmen McRae - Boy Meets Girl: The Complete Sammy Davis Jr. and Carmen McRae on Decca (2005) [FLAC]/09 A Fine Romance.flac
Pre-gap length : 00:02:55
Track gain : -8.18 dB
Peak : 0.852661
CRC32 hash (test run) : D74F474F
CRC32 hash : D74F474F
CRC32 hash (skip zero) : 2DAB3875
AccurateRip v1 signature : A5188934
AccurateRip v2 signature : 08274704
->Accurately ripped (v1+v2, confidence 10+6/16)
Statistics
Read error : 0
Jitter error (maybe fixed) : 0
Retry sector count : 0
Damaged sector count : 0
Track 10
Filename : /Volumes/Hollywood and Vine/Rips/Sammy Davis, Jr. & Carmen McRae - Boy Meets Girl: The Complete Sammy Davis Jr. and Carmen McRae on Decca (2005) [FLAC]/10 The Things We Did Last Summer.flac
Pre-gap length : 00:02:51
Track gain : -7.24 dB
Peak : 0.847687
CRC32 hash (test run) : F208551E
CRC32 hash : F208551E
CRC32 hash (skip zero) : E318407B
AccurateRip v1 signature : 64DE6D6F
AccurateRip v2 signature : BAC56286
->Accurately ripped (v1+v2, confidence 10+6/16)
Statistics
Read error : 0
Jitter error (maybe fixed) : 0
Retry sector count : 0
Damaged sector count : 0
Track 11
Filename : /Volumes/Hollywood and Vine/Rips/Sammy Davis, Jr. & Carmen McRae - Boy Meets Girl: The Complete Sammy Davis Jr. and Carmen McRae on Decca (2005) [FLAC]/11 Two Sleepy People.flac
Pre-gap length : 00:02:57
Track gain : -6.97 dB
Peak : 0.824341
CRC32 hash (test run) : 77995810
CRC32 hash : 77995810
CRC32 hash (skip zero) : 62CFB385
AccurateRip v1 signature : 185BB4B2
AccurateRip v2 signature : BF7A0379
->Accurately ripped (v1+v2, confidence 10+6/16)
Statistics
Read error : 0
Jitter error (maybe fixed) : 0
Retry sector count : 0
Damaged sector count : 0
Track 12
Filename : /Volumes/Hollywood and Vine/Rips/Sammy Davis, Jr. & Carmen McRae - Boy Meets Girl: The Complete Sammy Davis Jr. and Carmen McRae on Decca (2005) [FLAC]/12 Who Cares.flac
Pre-gap length : 00:02:55
Track gain : -8.35 dB
Peak : 0.813660
CRC32 hash (test run) : CBD4FD8E
CRC32 hash : CBD4FD8E
CRC32 hash (skip zero) : DB88A499
AccurateRip v1 signature : 91C1052A
AccurateRip v2 signature : 735A9C06
->Accurately ripped (v1+v2, confidence 10+6/16)
Statistics
Read error : 0
Jitter error (maybe fixed) : 0
Retry sector count : 0
Damaged sector count : 0
Track 13
Filename : /Volumes/Hollywood and Vine/Rips/Sammy Davis, Jr. & Carmen McRae - Boy Meets Girl: The Complete Sammy Davis Jr. and Carmen McRae on Decca (2005) [FLAC]/13 I Go for You.flac
Pre-gap length : 00:02:55
Track gain : -8.73 dB
Peak : 0.833984
CRC32 hash (test run) : 49D566FA
CRC32 hash : 49D566FA
CRC32 hash (skip zero) : 78C9BE22
AccurateRip v1 signature : A364E380
AccurateRip v2 signature : BF7DE97D
->Accurately ripped (v1+v2, confidence 10+6/16)
Statistics
Read error : 0
Jitter error (maybe fixed) : 0
Retry sector count : 0
Damaged sector count : 0
Track 14
Filename : /Volumes/Hollywood and Vine/Rips/Sammy Davis, Jr. & Carmen McRae - Boy Meets Girl: The Complete Sammy Davis Jr. and Carmen McRae on Decca (2005) [FLAC]/14 Summertime.flac
Pre-gap length : 00:02:55
Track gain : -5.60 dB
Peak : 0.941376
CRC32 hash (test run) : 5828F972
CRC32 hash : 5828F972
CRC32 hash (skip zero) : 77BE9256
AccurateRip v1 signature : 8811C7A4
AccurateRip v2 signature : F8602631
->Accurately ripped (v1+v2, confidence 10+6/16)
Statistics
Read error : 0
Jitter error (maybe fixed) : 0
Retry sector count : 0
Damaged sector count : 0
Track 15
Filename : /Volumes/Hollywood and Vine/Rips/Sammy Davis, Jr. & Carmen McRae - Boy Meets Girl: The Complete Sammy Davis Jr. and Carmen McRae on Decca (2005) [FLAC]/15 A Woman Is a Sometime Thing.flac
Pre-gap length : 00:02:27
Track gain : -9.37 dB
Peak : 0.988495
CRC32 hash (test run) : 6DA543E6
CRC32 hash : 6DA543E6
CRC32 hash (skip zero) : D94CAA8F
AccurateRip v1 signature : FF68FEFD
AccurateRip v2 signature : 10618ABD
->Accurately ripped (v1+v2, confidence 10+6/16)
Statistics
Read error : 0
Jitter error (maybe fixed) : 0
Retry sector count : 0
Damaged sector count : 0
Track 16
Filename : /Volumes/Hollywood and Vine/Rips/Sammy Davis, Jr. & Carmen McRae - Boy Meets Girl: The Complete Sammy Davis Jr. and Carmen McRae on Decca (2005) [FLAC]/16 My Man's Gone Now.flac
Pre-gap length : 00:02:49
Track gain : -6.63 dB
Peak : 0.891113
CRC32 hash (test run) : 24B80972
CRC32 hash : 24B80972
CRC32 hash (skip zero) : 0BE22E5D
AccurateRip v1 signature : A97D0D43
AccurateRip v2 signature : 4B29B5C8
->Accurately ripped (v1+v2, confidence 10+6/16)
Statistics
Read error : 0
Jitter error (maybe fixed) : 0
Retry sector count : 0
Damaged sector count : 0
Track 17
Filename : /Volumes/Hollywood and Vine/Rips/Sammy Davis, Jr. & Carmen McRae - Boy Meets Girl: The Complete Sammy Davis Jr. and Carmen McRae on Decca (2005) [FLAC]/17 I Got Plenty O' Nuttin'.flac
Pre-gap length : 00:02:57
Track gain : -8.21 dB
Peak : 0.982941
CRC32 hash (test run) : F6A9C2BB
CRC32 hash : F6A9C2BB
CRC32 hash (skip zero) : 3E238317
AccurateRip v1 signature : 61EF3CB0
AccurateRip v2 signature : 732F37F8
->Accurately ripped (v1+v2, confidence 10+6/16)
Statistics
Read error : 0
Jitter error (maybe fixed) : 0
Retry sector count : 0
Damaged sector count : 0
Track 18
Filename : /Volumes/Hollywood and Vine/Rips/Sammy Davis, Jr. & Carmen McRae - Boy Meets Girl: The Complete Sammy Davis Jr. and Carmen McRae on Decca (2005) [FLAC]/18 Bess, You Is My Woman.flac
Pre-gap length : 00:02:48
Track gain : -8.04 dB
Peak : 0.901093
CRC32 hash (test run) : 29472E96
CRC32 hash : 29472E96
CRC32 hash (skip zero) : 7D9BFAA1
AccurateRip v1 signature : 0BBC6D5E
AccurateRip v2 signature : 56B2906D
->Accurately ripped (v1+v2, confidence 10+6/16)
Statistics
Read error : 0
Jitter error (maybe fixed) : 0
Retry sector count : 0
Damaged sector count : 0
Track 19
Filename : /Volumes/Hollywood and Vine/Rips/Sammy Davis, Jr. & Carmen McRae - Boy Meets Girl: The Complete Sammy Davis Jr. and Carmen McRae on Decca (2005) [FLAC]/19 It Ain't Necessarily So.flac
Pre-gap length : 00:02:58
Track gain : -8.46 dB
Peak : 0.982208
CRC32 hash (test run) : 2B013B8C
CRC32 hash : 2B013B8C
CRC32 hash (skip zero) : BE10B8DF
AccurateRip v1 signature : ECF30FC6
AccurateRip v2 signature : 17AB303B
->Accurately ripped (v1+v2, confidence 10+6/16)
Statistics
Read error : 0
Jitter error (maybe fixed) : 0
Retry sector count : 0
Damaged sector count : 0
Track 20
Filename : /Volumes/Hollywood and Vine/Rips/Sammy Davis, Jr. & Carmen McRae - Boy Meets Girl: The Complete Sammy Davis Jr. and Carmen McRae on Decca (2005) [FLAC]/20 I Loves You Porgy.flac
Pre-gap length : 00:02:44
Track gain : -6.82 dB
Peak : 0.934540
CRC32 hash (test run) : C42BFC81
CRC32 hash : C42BFC81
CRC32 hash (skip zero) : E4E373C2
AccurateRip v1 signature : 92E1B58D
AccurateRip v2 signature : 983D1F7B
->Accurately ripped (v1+v2, confidence 10+6/16)
Statistics
Read error : 0
Jitter error (maybe fixed) : 0
Retry sector count : 0
Damaged sector count : 0
Track 21
Filename : /Volumes/Hollywood and Vine/Rips/Sammy Davis, Jr. & Carmen McRae - Boy Meets Girl: The Complete Sammy Davis Jr. and Carmen McRae on Decca (2005) [FLAC]/21 There's a Boat Dat's Leavin' Soon for New York.flac
Pre-gap length : 00:02:55
Track gain : -8.74 dB
Peak : 0.953217
CRC32 hash (test run) : 34DE8A9E
CRC32 hash : 34DE8A9E
CRC32 hash (skip zero) : B96560D8
AccurateRip v1 signature : ECFD4A81
AccurateRip v2 signature : 119A2C87
->Accurately ripped (v1+v2, confidence 10+6/16)
Statistics
Read error : 0
Jitter error (maybe fixed) : 0
Retry sector count : 0
Damaged sector count : 0
Track 22
Filename : /Volumes/Hollywood and Vine/Rips/Sammy Davis, Jr. & Carmen McRae - Boy Meets Girl: The Complete Sammy Davis Jr. and Carmen McRae on Decca (2005) [FLAC]/22 Oh Bess, Where's My Bess.flac
Pre-gap length : 00:02:41
Track gain : -8.01 dB
Peak : 0.908813
CRC32 hash (test run) : EA45688C
CRC32 hash : EA45688C
CRC32 hash (skip zero) : 8E2DAB18
AccurateRip v1 signature : 394FAAC0
AccurateRip v2 signature : 9BE0BC3F
->Accurately ripped (v1+v2, confidence 9+6/15)
Statistics
Read error : 0
Jitter error (maybe fixed) : 0
Retry sector count : 0
Damaged sector count : 0
Track 23
Filename : /Volumes/Hollywood and Vine/Rips/Sammy Davis, Jr. & Carmen McRae - Boy Meets Girl: The Complete Sammy Davis Jr. and Carmen McRae on Decca (2005) [FLAC]/23 Oh Lawd, I'm On My Way.flac
Pre-gap length : 00:02:55
Track gain : -8.48 dB
Peak : 0.892822
CRC32 hash (test run) : 0FFB5E27
CRC32 hash : 0FFB5E27
CRC32 hash (skip zero) : E7B059BF
AccurateRip v1 signature : 01F47CF9
AccurateRip v2 signature : B6EC2F87
->Accurately ripped (v1+v2, confidence 9+6/15)
Statistics
Read error : 0
Jitter error (maybe fixed) : 0
Retry sector count : 0
Damaged sector count : 0
No errors occurred
End of status report
-----BEGIN XLD SIGNATURE-----
srNs7G9keWzJoB1Q2GbyFPr06Awjww.sEz.youLCTy6DoTVEtd275ZN9jhafRkIwJZ.Wa9ijhOjJ4cEZxF7bBxkffnP0I6gPPSP.Tuu
-----END XLD SIGNATURE-----
 
Содержание индексной карты (.CUE)
TITLE "Boy Meets Girl: The Complete Sammy Davis Jr. and Carmen McRae on Decca"
PERFORMER "Sammy Davis, Jr. & Carmen McRae"
CATALOG 0731458954620
REM GENRE "Jazz"
REM DATE "2005"
REM DISCID 44124517
REM REPLAYGAIN_ALBUM_GAIN -8.26 dB
REM REPLAYGAIN_ALBUM_PEAK 0.988495
FILE "01 Happy to Make Your Acquaintance.flac" WAVE
TRACK 01 AUDIO
TITLE "Happy to Make Your Acquaintance"
PERFORMER "Sammy Davis Jr. & Carmen McRae"
SONGWRITER "Frank Loesser"
ISRC USMC15701707
REM REPLAYGAIN_TRACK_GAIN -8.08 dB
REM REPLAYGAIN_TRACK_PEAK 0.834137
INDEX 01 00:00:00
TRACK 02 AUDIO
TITLE "Tea for Two"
PERFORMER "Sammy Davis Jr. & Carmen McRae"
SONGWRITER "Vincent Youmans/Irving Caesar"
ISRC USGR10401656
REM REPLAYGAIN_TRACK_GAIN -8.78 dB
REM REPLAYGAIN_TRACK_PEAK 0.835815
INDEX 00 03:11:68
FILE "02 Tea for Two.flac" WAVE
INDEX 01 00:00:00
TRACK 03 AUDIO
TITLE "They Didn't Believe Me"
PERFORMER "Sammy Davis Jr. & Carmen McRae"
SONGWRITER "Herbert Reynolds/Jerome Kern"
ISRC USGR10401657
REM REPLAYGAIN_TRACK_GAIN -8.17 dB
REM REPLAYGAIN_TRACK_PEAK 0.818176
INDEX 00 02:34:34
FILE "03 They Didn't Believe Me.flac" WAVE
INDEX 01 00:00:00
TRACK 04 AUDIO
TITLE "You're the Top"
PERFORMER "Sammy Davis Jr. & Carmen McRae"
SONGWRITER "Cole Porter"
ISRC USGR10401658
REM REPLAYGAIN_TRACK_GAIN -8.99 dB
REM REPLAYGAIN_TRACK_PEAK 0.847290
INDEX 00 02:54:09
FILE "04 You're the Top.flac" WAVE
INDEX 01 00:00:00
TRACK 05 AUDIO
TITLE "Cheek to Cheek"
PERFORMER "Sammy Davis Jr. & Carmen McRae"
SONGWRITER "Irving Berlin"
ISRC USGR10401659
REM REPLAYGAIN_TRACK_GAIN -9.53 dB
REM REPLAYGAIN_TRACK_PEAK 0.845947
INDEX 00 03:02:35
FILE "05 Cheek to Cheek.flac" WAVE
INDEX 01 00:00:00
TRACK 06 AUDIO
TITLE "Baby, It's Cold Outside"
PERFORMER "Sammy Davis Jr. & Carmen McRae"
SONGWRITER "Frank Loesser"
ISRC USMC15701704
REM REPLAYGAIN_TRACK_GAIN -8.00 dB
REM REPLAYGAIN_TRACK_PEAK 0.886993
INDEX 00 03:58:09
FILE "06 Baby, It's Cold Outside.flac" WAVE
INDEX 01 00:00:00
TRACK 07 AUDIO
TITLE "People Will Say We're in Love"
PERFORMER "Sammy Davis Jr. & Carmen McRae"
SONGWRITER "Oscar Hammerstein II/Richard Rodgers"
ISRC USGR10401660
REM REPLAYGAIN_TRACK_GAIN -7.19 dB
REM REPLAYGAIN_TRACK_PEAK 0.855560
INDEX 00 03:11:47
FILE "07 People Will Say We're in Love.flac" WAVE
INDEX 01 00:00:00
TRACK 08 AUDIO
TITLE "There's a Small Hotel"
PERFORMER "Sammy Davis Jr. & Carmen McRae"
SONGWRITER "Richard Rodgers/Lorenz Hart"
ISRC USMC15746730
REM REPLAYGAIN_TRACK_GAIN -7.28 dB
REM REPLAYGAIN_TRACK_PEAK 0.806427
INDEX 00 03:16:64
FILE "08 There's a Small Hotel.flac" WAVE
INDEX 01 00:00:00
TRACK 09 AUDIO
TITLE "A Fine Romance"
PERFORMER "Sammy Davis Jr. & Carmen McRae"
SONGWRITER "Ella Fitzgerald & Duke Ellington"
ISRC USGR10401661
REM REPLAYGAIN_TRACK_GAIN -8.18 dB
REM REPLAYGAIN_TRACK_PEAK 0.852661
INDEX 00 03:27:59
FILE "09 A Fine Romance.flac" WAVE
INDEX 01 00:00:00
TRACK 10 AUDIO
TITLE "The Things We Did Last Summer"
PERFORMER "Sammy Davis Jr. & Carmen McRae"
SONGWRITER "Jule Styne/Sammy Cahn"
ISRC USGR10401662
REM REPLAYGAIN_TRACK_GAIN -7.24 dB
REM REPLAYGAIN_TRACK_PEAK 0.847687
INDEX 00 02:52:74
FILE "10 The Things We Did Last Summer.flac" WAVE
INDEX 01 00:00:00
TRACK 11 AUDIO
TITLE "Two Sleepy People"
PERFORMER "Sammy Davis Jr. & Carmen McRae"
SONGWRITER "Hoagy Carmichael/Frank Loesser"
ISRC USGR10401663
REM REPLAYGAIN_TRACK_GAIN -6.97 dB
REM REPLAYGAIN_TRACK_PEAK 0.824341
INDEX 00 03:06:26
FILE "11 Two Sleepy People.flac" WAVE
INDEX 01 00:00:00
TRACK 12 AUDIO
TITLE "Who Cares"
PERFORMER "Sammy Davis Jr. & Carmen McRae"
SONGWRITER "George Gershwin/Ira Gershwin"
ISRC USGR10401664
REM REPLAYGAIN_TRACK_GAIN -8.35 dB
REM REPLAYGAIN_TRACK_PEAK 0.813660
INDEX 00 02:50:38
FILE "12 Who Cares.flac" WAVE
INDEX 01 00:00:00
TRACK 13 AUDIO
TITLE "I Go for You"
PERFORMER "Sammy Davis Jr. & Carmen McRae"
SONGWRITER "Hal David/Leon Carr"
ISRC USMC15587851
REM REPLAYGAIN_TRACK_GAIN -8.73 dB
REM REPLAYGAIN_TRACK_PEAK 0.833984
INDEX 00 02:33:61
FILE "13 I Go for You.flac" WAVE
INDEX 01 00:00:00
TRACK 14 AUDIO
TITLE "Summertime"
PERFORMER "Carmen McRae"
SONGWRITER "Dorothy Heyward/George Gershwin/DuBose Heyward/Ira Gershwin"
ISRC USMC15805913
REM REPLAYGAIN_TRACK_GAIN -5.60 dB
REM REPLAYGAIN_TRACK_PEAK 0.941376
INDEX 00 02:55:35
FILE "14 Summertime.flac" WAVE
INDEX 01 00:00:00
TRACK 15 AUDIO
TITLE "A Woman Is a Sometime Thing"
PERFORMER "Sammy Davis Jr."
SONGWRITER "Ira Gershwin/Dorothy Heyward/DuBose Heyward/George Gershwin"
ISRC USMC10401109
REM REPLAYGAIN_TRACK_GAIN -9.37 dB
REM REPLAYGAIN_TRACK_PEAK 0.988495
INDEX 00 02:57:69
FILE "15 A Woman Is a Sometime Thing.flac" WAVE
INDEX 01 00:00:00
TRACK 16 AUDIO
TITLE "My Man's Gone Now"
PERFORMER "Carmen McRae"
SONGWRITER "Ira Gershwin/DuBose Heyward"
ISRC USMC15805912
REM REPLAYGAIN_TRACK_GAIN -6.63 dB
REM REPLAYGAIN_TRACK_PEAK 0.891113
INDEX 00 03:39:24
FILE "16 My Man's Gone Now.flac" WAVE
INDEX 01 00:00:00
TRACK 17 AUDIO
TITLE "I Got Plenty O' Nuttin'"
PERFORMER "Sammy Davis Jr."
SONGWRITER "George Gershwin/DuBose Heyward/Ira Gershwin"
ISRC USMC15811198
REM REPLAYGAIN_TRACK_GAIN -8.21 dB
REM REPLAYGAIN_TRACK_PEAK 0.982941
INDEX 00 04:15:55
FILE "17 I Got Plenty O' Nuttin'.flac" WAVE
INDEX 01 00:00:00
TRACK 18 AUDIO
TITLE "Bess, You Is My Woman"
PERFORMER "Sammy Davis Jr."
SONGWRITER "Ira Gershwin/DuBose Heyward/George Gershwin"
ISRC USMC10401110
REM REPLAYGAIN_TRACK_GAIN -8.04 dB
REM REPLAYGAIN_TRACK_PEAK 0.901093
INDEX 00 03:27:30
FILE "18 Bess, You Is My Woman.flac" WAVE
INDEX 01 00:00:00
TRACK 19 AUDIO
TITLE "It Ain't Necessarily So"
PERFORMER "Sammy Davis Jr."
SONGWRITER "DuBose Heyward/Ira Gershwin/George Gershwin"
ISRC USMC10401111
REM REPLAYGAIN_TRACK_GAIN -8.46 dB
REM REPLAYGAIN_TRACK_PEAK 0.982208
INDEX 00 04:50:03
FILE "19 It Ain't Necessarily So.flac" WAVE
INDEX 01 00:00:00
TRACK 20 AUDIO
TITLE "I Loves You Porgy"
PERFORMER "Sammy Davis Jr. & Carmen McRae"
SONGWRITER "DuBose Heyward/George Gershwin/Ira Gershwin"
ISRC USMC15811270
REM REPLAYGAIN_TRACK_GAIN -6.82 dB
REM REPLAYGAIN_TRACK_PEAK 0.934540
INDEX 00 03:54:48
FILE "20 I Loves You Porgy.flac" WAVE
INDEX 01 00:00:00
TRACK 21 AUDIO
TITLE "There's a Boat Dat's Leavin' Soon for New York"
PERFORMER "Sammy Davis Jr."
SONGWRITER "Ira Gershwin/George Gershwin/DuBose Heyward"
ISRC USMC10401112
REM REPLAYGAIN_TRACK_GAIN -8.74 dB
REM REPLAYGAIN_TRACK_PEAK 0.953217
INDEX 00 03:47:04
FILE "21 There's a Boat Dat's Leavin' Soon for New York.flac" WAVE
INDEX 01 00:00:00
TRACK 22 AUDIO
TITLE "Oh Bess, Where's My Bess"
PERFORMER "Sammy Davis Jr."
SONGWRITER "Dorothy Heyward/Ira Gershwin/DuBose Heyward/George Gershwin"
ISRC USMC10401113
REM REPLAYGAIN_TRACK_GAIN -8.01 dB
REM REPLAYGAIN_TRACK_PEAK 0.908813
INDEX 00 03:58:49
FILE "22 Oh Bess, Where's My Bess.flac" WAVE
INDEX 01 00:00:00
TRACK 23 AUDIO
TITLE "Oh Lawd, I'm On My Way"
PERFORMER "Sammy Davis Jr."
SONGWRITER "George Gershwin/DuBose Heyward/Ira Gershwin"
ISRC USMC10401114
REM REPLAYGAIN_TRACK_GAIN -8.48 dB
REM REPLAYGAIN_TRACK_PEAK 0.892822
INDEX 00 03:26:05
FILE "23 Oh Lawd, I'm On My Way.flac" WAVE
INDEX 01 00:00:00
 
Лог проверки качества
CUE Corrector v. 8.3.4 / b. 859 (Jun. 01, 2018)
Sammy Davis, Jr. & Carmen McRae / Boy Meets Girl: The Complete Sammy Davis Jr. and Carmen McRae on Decca
AccurateRip ID [003de162-0411d266-44124517] found.
Get file: http://www.accuraterip.com/accuraterip/2/6/1/dBAR-023-003de162-0411d266-44124517.bin
AccurateRip summary:
Track 1 accurately ripped (confidence 10) [C2B9FBE4] (AR v1)
Track 2 accurately ripped (confidence 10) [B355393D] (AR v1)
Track 3 accurately ripped (confidence 10) [6E5A7B54] (AR v1)
Track 4 accurately ripped (confidence 10) [553F89BA] (AR v1)
Track 5 accurately ripped (confidence 10) [D786CE36] (AR v1)
Track 6 accurately ripped (confidence 10) [83545FB5] (AR v1)
Track 7 accurately ripped (confidence 10) [43D3DD66] (AR v1)
Track 8 accurately ripped (confidence 10) [0C4E03AE] (AR v1)
Track 9 accurately ripped (confidence 10) [A5188934] (AR v1)
Track 10 accurately ripped (confidence 10) [64DE6D6F] (AR v1)
Track 11 accurately ripped (confidence 10) [185BB4B2] (AR v1)
Track 12 accurately ripped (confidence 10) [91C1052A] (AR v1)
Track 13 accurately ripped (confidence 10) [A364E380] (AR v1)
Track 14 accurately ripped (confidence 10) [8811C7A4] (AR v1)
Track 15 accurately ripped (confidence 10) [FF68FEFD] (AR v1)
Track 16 accurately ripped (confidence 10) [A97D0D43] (AR v1)
Track 17 accurately ripped (confidence 10) [61EF3CB0] (AR v1)
Track 18 accurately ripped (confidence 10) [0BBC6D5E] (AR v1)
Track 19 accurately ripped (confidence 10) [ECF30FC6] (AR v1)
Track 20 accurately ripped (confidence 10) [92E1B58D] (AR v1)
Track 21 accurately ripped (confidence 10) [ECFD4A81] (AR v1)
Track 22 accurately ripped (confidence 9) [394FAAC0] (AR v1)
Track 23 accurately ripped (confidence 9) [01F47CF9] (AR v1)
All tracks accurately ripped
——————————————————————————————————————————————————
Track 1 accurately ripped (confidence 10) [9BABB663] (AR v2)
Track 2 accurately ripped (confidence 10) [F02D004B] (AR v2)
Track 3 accurately ripped (confidence 10) [AD34C9B5] (AR v2)
Track 4 accurately ripped (confidence 10) [B7E7D27C] (AR v2)
Track 5 accurately ripped (confidence 10) [DC872DF1] (AR v2)
Track 6 accurately ripped (confidence 10) [21F71BEA] (AR v2)
Track 7 accurately ripped (confidence 10) [DB9E8356] (AR v2)
Track 8 accurately ripped (confidence 10) [64F372CA] (AR v2)
Track 9 accurately ripped (confidence 10) [08274704] (AR v2)
Track 10 accurately ripped (confidence 10) [BAC56286] (AR v2)
Track 11 accurately ripped (confidence 10) [BF7A0379] (AR v2)
Track 12 accurately ripped (confidence 10) [735A9C06] (AR v2)
Track 13 accurately ripped (confidence 10) [BF7DE97D] (AR v2)
Track 14 accurately ripped (confidence 10) [F8602631] (AR v2)
Track 15 accurately ripped (confidence 10) [10618ABD] (AR v2)
Track 16 accurately ripped (confidence 10) [4B29B5C8] (AR v2)
Track 17 accurately ripped (confidence 10) [732F37F8] (AR v2)
Track 18 accurately ripped (confidence 10) [56B2906D] (AR v2)
Track 19 accurately ripped (confidence 10) [17AB303B] (AR v2)
Track 20 accurately ripped (confidence 10) [983D1F7B] (AR v2)
Track 21 accurately ripped (confidence 10) [119A2C87] (AR v2)
Track 22 accurately ripped (confidence 10) [9BE0BC3F] (AR v2)
Track 23 accurately ripped (confidence 10) [B6EC2F87] (AR v2)
All tracks accurately ripped
Track Peak [ CRC32 ] [W/O NULL] [ LOG ] [ ARv1 ] [ ARv2 ]
-- 98.8 [839CF9C5] [3F9387E7]
01 83.4 [2B2F0DB4] [06D0B5C2] [C2B9FBE4] [9BABB663]
02 83.5 [1CA85CBB] [27EEEBB9] [B355393D] [F02D004B]
03 81.8 [F3117F7C] [B45CD010] [6E5A7B54] [AD34C9B5]
04 84.7 [4450DAB5] [37C067B3] [553F89BA] [B7E7D27C]
05 84.5 [33437A39] [0B044A17] [D786CE36] [DC872DF1]
06 88.7 [564E102A] [0194C556] [83545FB5] [21F71BEA]
07 85.5 [50306186] [F4D09EC0] [43D3DD66] [DB9E8356]
08 80.6 [12BCF6B2] [1777FABE] [0C4E03AE] [64F372CA]
09 85.2 [D74F474F] [2DAB3875] [A5188934] [08274704]
10 84.7 [F208551E] [E318407B] [64DE6D6F] [BAC56286]
11 82.4 [77995810] [62CFB385] [185BB4B2] [BF7A0379]
12 81.3 [CBD4FD8E] [DB88A499] [91C1052A] [735A9C06]
13 83.4 [49D566FA] [78C9BE22] [A364E380] [BF7DE97D]
14 94.1 [5828F972] [77BE9256] [8811C7A4] [F8602631]
15 98.8 [6DA543E6] [D94CAA8F] [FF68FEFD] [10618ABD]
16 89.1 [24B80972] [0BE22E5D] [A97D0D43] [4B29B5C8]
17 98.2 [F6A9C2BB] [3E238317] [61EF3CB0] [732F37F8]
18 90.1 [29472E96] [7D9BFAA1] [0BBC6D5E] [56B2906D]
19 98.2 [2B013B8C] [BE10B8DF] [ECF30FC6] [17AB303B]
20 93.4 [C42BFC81] [E4E373C2] [92E1B58D] [983D1F7B]
21 95.3 [34DE8A9E] [B96560D8] [ECFD4A81] [119A2C87]
22 90.8 [EA45688C] [8E2DAB18] [394FAAC0] [9BE0BC3F]
23 89.2 [0FFB5E27] [E7B059BF] [01F47CF9] [B6EC2F87]
Log created at June 04, 2018 12:07:26
Time elapsed: 13.416 s
=== 3AF8521C99CE6929E670F9387309D9526B32121EADBFEF881FCB95B5148E2DA5 ===
 
Скриншот спектра частот
Скачивание доступно после регистрации!!
Приватный:
Нет (DHT включён)
Размер:
348.07 Мб (364,979,007 байт) » файлов: 26
Участники:
0 раздают, 0 качают (0 участников всего)
Внешние участники:
5 раздают, 2 качают (7 участников всего) [ Обновить ]
07:30
12
Нет комментариев. Ваш будет первым!