Вы используете незарегистрированную версию компонента "Вкладки"!

Поиск

(Vocal Jazz) Rosemary Clooney - Tribute To Billie Holiday (1979) - 1992, FLAC (tracks+.cue), lossless

(Vocal Jazz) Rosemary Clooney - Tribute To Billie Holiday (1979) - 1992, FLAC (tracks+.cue), lossless
Треклист:
Rosemary Clooney – Tribute To Billie Holiday (1979)
Жанр: Vocal Jazz
Год издания: 1992
Издатель (лейбл): Concord
Номер по каталогу: CCD-4081-2
Аудиокодек: FLAC (*.flac)
Тип рипа: tracks+.cue
Битрейт аудио: lossless
Продолжительность: 41:41
Источник (релизер): What.cd (kvolik27)
Наличие сканов в содержимом раздачи: нет
Треклист:
01. I Cover The Waterfront (3:41)
02. Good Morning, Heartache (4:24)
03. Mean To Me (3:52)
04. Lover Man (Oh Where Can You Be) (4:37)
05. Don't Explain (4:49)
06. Comes Love (4:52)
07. He's Funny That Way (4:44)
08. God Bless' The Child (2:31)
09. Them There Eyes (2:40)
10. Everything Happens To Me (5:31)
Personnel:
Rosemary Clooney - vo
Warren Vaché - cor
Scott Hamilton - ts
Nat Pierce - p
Cal Collins - g
Monty Budwig - b
Jake Hanna - d
Rec.: Wally Heider Recording Studio, San Francisco, CA, September 1978.
 
 
Лог создания рипа
Exact Audio Copy V1.0 beta 3 from 29. August 2011
EAC extraction logfile from 12. June 2012, 22:24
Rosemary Clooney / Tribute To Billie Holiday
Used drive : PLEXTOR CD-R PX-W2410A Adapter: 2 ID: 0
Read mode : Secure
Utilize accurate stream : Yes
Defeat audio cache : Yes
Make use of C2 pointers : No
Read offset correction : 98
Overread into Lead-In and Lead-Out : Yes
Fill up missing offset samples with silence : Yes
Delete leading and trailing silent blocks : No
Null samples used in CRC calculations : Yes
Used interface : Native Win32 interface for Win NT & 2000
Gap handling : Appended to previous track
Used output format : User Defined Encoder
Selected bitrate : 320 kBit/s
Quality : High
Add ID3 tag : No
Command line compressor : C:\Program Files\Exact Audio Copy\FLAC\FLAC.EXE
Additional command line options : -V -8 -T "Genre=%genre%" -T "Artist=%artist%" -T "Title=%title%" -T "Album=%albumtitle%" -T "Date=%year%" -T "Tracknumber=%tracknr%" -T "Comment=%comment%" %source%
TOC of the extracted CD
Track | Start | Length | Start sector | End sector
---------------------------------------------------------
1 | 0:00.00 | 3:41.15 | 0 | 16589
2 | 3:41.15 | 4:24.12 | 16590 | 36401
3 | 8:05.27 | 3:51.65 | 36402 | 53791
4 | 11:57.17 | 4:36.48 | 53792 | 74539
5 | 16:33.65 | 4:48.52 | 74540 | 96191
6 | 21:22.42 | 4:51.70 | 96192 | 118086
7 | 26:14.37 | 4:44.05 | 118087 | 139391
8 | 30:58.42 | 2:30.43 | 139392 | 150684
9 | 33:29.10 | 2:40.20 | 150685 | 162704
10 | 36:09.30 | 5:31.17 | 162705 | 187546
Track 1
Filename X:\EAC\Rosemary Clooney - Tribute To Billie Holiday (Concord 1979 USA) [FLAC]\01. I Cover The Waterfront.wav
Pre-gap length 0:00:02.00
Peak level 95.3 %
Extraction speed 1.8 X
Track quality 100.0 %
Test CRC 23512FC3
Copy CRC 23512FC3
Cannot be verified as accurate (confidence 3) [E5D5A4E1], AccurateRip returned [88578CAC] (AR v2)
Copy OK
Track 2
Filename X:\EAC\Rosemary Clooney - Tribute To Billie Holiday (Concord 1979 USA) [FLAC]\02. Good Morning, Heartache.wav
Pre-gap length 0:00:04.28
Peak level 78.1 %
Extraction speed 1.8 X
Track quality 99.9 %
Test CRC 36B3E7DF
Copy CRC 36B3E7DF
Cannot be verified as accurate (confidence 3) [03F2C6F5], AccurateRip returned [7A16C4A0] (AR v2)
Copy OK
Track 3
Filename X:\EAC\Rosemary Clooney - Tribute To Billie Holiday (Concord 1979 USA) [FLAC]\03. Mean To Me.wav
Pre-gap length 0:00:04.65
Peak level 98.3 %
Extraction speed 1.8 X
Track quality 100.0 %
Test CRC EC82EDBA
Copy CRC EC82EDBA
Cannot be verified as accurate (confidence 3) [0364C3AF], AccurateRip returned [D3553EC9] (AR v2)
Copy OK
Track 4
Filename X:\EAC\Rosemary Clooney - Tribute To Billie Holiday (Concord 1979 USA) [FLAC]\04. Lover Man (Oh Where Can You Be).wav
Pre-gap length 0:00:04.62
Peak level 94.0 %
Extraction speed 1.8 X
Track quality 100.0 %
Test CRC 085ABDE2
Copy CRC 085ABDE2
Cannot be verified as accurate (confidence 3) [504914A6], AccurateRip returned [4AD9319F] (AR v2)
Copy OK
Track 5
Filename X:\EAC\Rosemary Clooney - Tribute To Billie Holiday (Concord 1979 USA) [FLAC]\05. Don't Explain.wav
Pre-gap length 0:00:05.30
Peak level 79.2 %
Extraction speed 1.9 X
Track quality 100.0 %
Test CRC 4149FC7A
Copy CRC 4149FC7A
Cannot be verified as accurate (confidence 3) [B2F8AE19], AccurateRip returned [A0C5AC67] (AR v2)
Copy OK
Track 6
Filename X:\EAC\Rosemary Clooney - Tribute To Billie Holiday (Concord 1979 USA) [FLAC]\06. Comes Love.wav
Pre-gap length 0:00:03.07
Peak level 99.6 %
Extraction speed 1.9 X
Track quality 100.0 %
Test CRC F2B61F91
Copy CRC F2B61F91
Cannot be verified as accurate (confidence 3) [A5DFF6F0], AccurateRip returned [238188DC] (AR v2)
Copy OK
Track 7
Filename X:\EAC\Rosemary Clooney - Tribute To Billie Holiday (Concord 1979 USA) [FLAC]\07. He's Funny That Way.wav
Pre-gap length 0:00:04.25
Peak level 99.1 %
Extraction speed 1.9 X
Track quality 100.0 %
Test CRC 95FAD92D
Copy CRC 95FAD92D
Cannot be verified as accurate (confidence 3) [90C995F0], AccurateRip returned [1B02D22B] (AR v2)
Copy OK
Track 8
Filename X:\EAC\Rosemary Clooney - Tribute To Billie Holiday (Concord 1979 USA) [FLAC]\08. God Bless' The Child.wav
Pre-gap length 0:00:04.72
Peak level 45.3 %
Extraction speed 1.8 X
Track quality 100.0 %
Test CRC 85D50F06
Copy CRC 85D50F06
Cannot be verified as accurate (confidence 2) [4D3AF56E], AccurateRip returned [E8C22914] (AR v2)
Copy OK
Track 9
Filename X:\EAC\Rosemary Clooney - Tribute To Billie Holiday (Concord 1979 USA) [FLAC]\09. Them There Eyes.wav
Pre-gap length 0:00:04.63
Peak level 99.4 %
Extraction speed 1.8 X
Track quality 100.0 %
Test CRC F748BD7E
Copy CRC F748BD7E
Cannot be verified as accurate (confidence 2) [155B3B21], AccurateRip returned [96335B2F] (AR v2)
Copy OK
Track 10
Filename X:\EAC\Rosemary Clooney - Tribute To Billie Holiday (Concord 1979 USA) [FLAC]\10. Everything Happens To Me.wav
Pre-gap length 0:00:04.35
Peak level 91.7 %
Extraction speed 1.9 X
Track quality 100.0 %
Test CRC 63EC4FD3
Copy CRC 63EC4FD3
Cannot be verified as accurate (confidence 4) [0F44D7DE], AccurateRip returned [CD739CEC] (AR v2)
Copy OK
No tracks could be verified as accurate
You may have a different pressing from the one(s) in the database
No errors occurred
End of status report
---- CUETools DB Plugin V2.1.3
[CTDB TOCID: 3nYoUUQTL3RxMCLDBxQyzBvqFWM-] found, Submit result: already submitted
[02310c64] (2/2) Accurately ripped
==== Log checksum 9BFD0E5239C37CCC669617702773491699ADE10FE6095295BFF3C7967A6FF7C5 ====
 
Содержание индексной карты (.CUE)
REM GENRE Jazz
REM DATE 1979
REM DISCID 8409C40A
REM COMMENT "ExactAudioCopy v1.0b3"
PERFORMER "Rosemary Clooney"
TITLE "Tribute To Billie Holiday"
FILE "01. I Cover The Waterfront.wav" WAVE
TRACK 01 AUDIO
TITLE "I Cover The Waterfront"
PERFORMER "Rosemary Clooney"
INDEX 01 00:00:00
TRACK 02 AUDIO
TITLE "Good Morning, Heartache"
PERFORMER "Rosemary Clooney"
INDEX 00 03:36:62
FILE "02. Good Morning, Heartache.wav" WAVE
INDEX 01 00:00:00
TRACK 03 AUDIO
TITLE "Mean To Me"
PERFORMER "Rosemary Clooney"
INDEX 00 04:19:22
FILE "03. Mean To Me.wav" WAVE
INDEX 01 00:00:00
TRACK 04 AUDIO
TITLE "Lover Man (Oh Where Can You Be)"
PERFORMER "Rosemary Clooney"
INDEX 00 03:47:03
FILE "04. Lover Man (Oh Where Can You Be).wav" WAVE
INDEX 01 00:00:00
TRACK 05 AUDIO
TITLE "Don't Explain"
PERFORMER "Rosemary Clooney"
INDEX 00 04:31:18
FILE "05. Don't Explain.wav" WAVE
INDEX 01 00:00:00
TRACK 06 AUDIO
TITLE "Comes Love"
PERFORMER "Rosemary Clooney"
INDEX 00 04:45:45
FILE "06. Comes Love.wav" WAVE
INDEX 01 00:00:00
TRACK 07 AUDIO
TITLE "He's Funny That Way"
PERFORMER "Rosemary Clooney"
INDEX 00 04:47:45
FILE "07. He's Funny That Way.wav" WAVE
INDEX 01 00:00:00
TRACK 08 AUDIO
TITLE "God Bless' The Child"
PERFORMER "Rosemary Clooney"
INDEX 00 04:39:08
FILE "08. God Bless' The Child.wav" WAVE
INDEX 01 00:00:00
TRACK 09 AUDIO
TITLE "Them There Eyes"
PERFORMER "Rosemary Clooney"
INDEX 00 02:25:55
FILE "09. Them There Eyes.wav" WAVE
INDEX 01 00:00:00
TRACK 10 AUDIO
TITLE "Everything Happens To Me"
PERFORMER "Rosemary Clooney"
INDEX 00 02:35:60
FILE "10. Everything Happens To Me.wav" WAVE
INDEX 01 00:00:00
 
CUETools log
[CUETools log; Date: 13.08.2013 19:13:03; Version: 2.0.9]
[CTDB TOCID: 3nYoUUQTL3RxMCLDBxQyzBvqFWM-] found.
[ CTDBID ] Status
[02310c64] (2/2) Accurately ripped
[AccurateRip ID: 000fce9c-007e93d8-8409c40a] found.
Track [ CRC ] Status
01 [3156d989] (02/09) No match but offset
02 [01c0bf72] (02/09) No match but offset
03 [3ada5c22] (02/09) No match but offset
04 [7f5b42e9] (02/09) No match but offset
05 [252ca80f] (02/09) No match but offset
06 [3b2e3444] (02/09) No match but offset
07 [565df49e] (02/09) No match but offset
08 [3410a37f] (02/08) No match but offset
09 [fda6050a] (02/08) No match but offset
10 [cd342743] (02/10) No match but offset
Offsetted by 1667:
01 [88578cac] (03/09) Accurately ripped
02 [7a16c4a0] (03/09) Accurately ripped
03 [d3553ec9] (03/09) Accurately ripped
04 [4ad9319f] (03/09) Accurately ripped
05 [a0c5ac67] (03/09) Accurately ripped
06 [238188dc] (03/09) Accurately ripped
07 [1b02d22b] (03/09) Accurately ripped
08 [ee72249f] (02/08) Accurately ripped
09 [6a742c45] (02/08) Accurately ripped
10 [cd739cec] (04/10) Accurately ripped
Offsetted by -387:
01 [8e0e6981] (02/09) Accurately ripped
02 [471084a0] (02/09) Accurately ripped
03 [0d671aaa] (02/09) Accurately ripped
04 [0a01f352] (02/09) Accurately ripped
05 [80691084] (02/09) Accurately ripped
06 [4ff0efa2] (02/09) Accurately ripped
07 [a584832d] (02/09) Accurately ripped
08 [e8c22914] (02/08) Accurately ripped
09 [96335b2f] (02/08) Accurately ripped
10 [72b7d93f] (02/10) No match but offset
Offsetted by 277:
01 [576e4574] (02/09) No match but offset
02 [00e52118] (02/09) No match but offset
03 [403b5d93] (02/09) No match but offset
04 [b6466034] (02/09) No match but offset
05 [fe60c6cf] (02/09) No match but offset
06 [89cec096] (02/09) No match but offset
07 [a4e73adc] (02/09) No match but offset
08 [76b21d1c] (02/08) No match but offset
09 [bcc509c9] (02/08) No match but offset
10 [ead7b731] (02/10) No match but offset
Track Peak [ CRC32 ] [W/O NULL] [ LOG ]
-- 99,6 [F13A41CC] [B499BFB4]
01 95,3 [23512FC3] [FE808EE0] CRC32
02 78,1 [36B3E7DF] [2215B722] CRC32
03 98,3 [EC82EDBA] [6ED7DFC1] CRC32
04 94,0 [085ABDE2] [B7FAADD9] CRC32
05 79,2 [4149FC7A] [38CB3E8C] CRC32
06 99,6 [F2B61F91] [A560117A] CRC32
07 99,1 [95FAD92D] [D3DE0C3D] CRC32
08 45,3 [85D50F06] [BF0861CC] CRC32
09 99,4 [F748BD7E] [6FA03A43] CRC32
10 91,7 [63EC4FD3] [85D2B7BD] CRC32
Any questions - support@pro-jazz.com. Есть вопросы - support@pro-jazz.com
10:40
257
Нет комментариев. Ваш будет первым!