Вы используете незарегистрированную версию компонента "Вкладки"!

Поиск

(Vocal Jazz) Rosemary Clooney - Don't Worry 'Bout Me - 2002, FLAC (tracks+.cue), lossless

(Vocal Jazz) Rosemary Clooney - Don't Worry 'Bout Me - 2002, FLAC (tracks+.cue), lossless
Треклист:
Rosemary Clooney – Don't Worry 'Bout Me
Жанр: Vocal Jazz
Год издания: 2002
Издатель (лейбл): Past Perfect
Номер по каталогу: 220361
Аудиокодек: FLAC (*.flac)
Тип рипа: tracks+.cue
Битрейт аудио: lossless
Продолжительность: 68:19
Источник (релизер): What.cd (LiplessOnion)
Наличие сканов в содержимом раздачи: нет
Треклист:
01. You Make Me Feel So Young (2:53)
02. My Old Flame (3:10)
03. As Long As I Live (2:15)
04. Don't Worry 'Bout Me (2:55)
05. Our Love Affair (2:09)
06. Shine (1:28)
07. I'm Only Ambitious For You (3:01)
08. This Can't Be Love (1:39)
09. Tenderly (3:00)
10. Half As Much (2:23)
11. South Rampart Street Parade (3:34)
12. Who Kissed Me Last Night? (2:35)
13. You'll Never Know (2:32)
14. Blues In The Night (3:27)
15. I Do, I Do, I Do (3:00)
16. Lovely Weather For Ducks (2:31)
17. Haven't Got A Worry To My Name (2:12)
18. Lonely Am I (3:36)
19. It's Only A Paper Moon (2:29)
20. You're In Kentucky Sure As You're Born (2:08)
21. Medley: These Foolish Things / We Just Couldn't Say Goodbye / You'd Be So Nice To Come Home (5:17)
22. It's A Most Unusual Day (1:49)
23. Tomorrow I'll Dream And Remember (3:15)
24. Bad News (2:05)
25. Chicago Style (2:59)
Bing Crosby sings duets with Ms. Clooney on tracks 11, 19, 21 and 25.
Rec.: June 1952 - May 1954.
  
 
Лог создания рипа
X Lossless Decoder version 20101023 (123.5)
XLD extraction logfile from 2010-10-24 16:57:22 -0500
Rosemary Clooney / Don´t Worry 'Bout Me
Used drive : MATSHITA DVD-R UJ-857D (revision KBVB)
Use cdparanoia mode : YES (CDParanoia III 10.2 engine)
Disable audio cache : OK for the drive with cache less than 2750KB
Make use of C2 pointers : NO
Read offset correction : 102
Max retry count : 100
Gap status : Analyzed, Appended
TOC of the extracted CD
Track | Start | Length | Start sector | End sector
---------------------------------------------------------
1 | 00:00:00 | 02:52:56 | 0 | 12955
2 | 02:52:56 | 03:09:52 | 12956 | 27182
3 | 06:02:33 | 02:15:22 | 27183 | 37329
4 | 08:17:55 | 02:54:56 | 37330 | 50435
5 | 11:12:36 | 02:08:40 | 50436 | 60075
6 | 13:21:01 | 01:27:41 | 60076 | 66641
7 | 14:48:42 | 03:00:55 | 66642 | 80196
8 | 17:49:22 | 01:39:19 | 80197 | 87640
9 | 19:28:41 | 02:59:44 | 87641 | 101109
10 | 22:28:10 | 02:22:62 | 101110 | 111821
11 | 24:50:72 | 03:33:53 | 111822 | 127849
12 | 28:24:50 | 02:34:62 | 127850 | 139461
13 | 30:59:37 | 02:31:47 | 139462 | 150833
14 | 33:31:09 | 03:26:72 | 150834 | 166355
15 | 36:58:06 | 02:59:39 | 166356 | 179819
16 | 39:57:45 | 02:30:39 | 179820 | 191108
17 | 42:28:09 | 02:11:54 | 191109 | 200987
18 | 44:39:63 | 03:36:17 | 200988 | 217204
19 | 48:16:05 | 02:29:12 | 217205 | 228391
20 | 50:45:17 | 02:07:72 | 228392 | 237988
21 | 52:53:14 | 05:16:61 | 237989 | 261749
22 | 58:10:00 | 01:49:03 | 261750 | 269927
23 | 59:59:03 | 03:15:20 | 269928 | 284572
24 | 63:14:23 | 02:05:03 | 284573 | 293950
25 | 65:19:26 | 02:59:33 | 293951 | 307408
All Tracks
Album gain : -4.81 dB
Peak : 0.999969
Track 01
Filename : /Volumes/External HDD/Torrenst (Created)/Rosemary Clooney - Don't Worry 'Bout Me (2002) FLAC/01 - You Make Me Feel So Young.flac
Pre-gap length : 00:02:00
Track gain : -4.97 dB
Peak : 0.999969
CRC32 hash (test run) : 2B97DF5B
CRC32 hash : 2B97DF5B
CRC32 hash (skip zero) : 6EF78826
AccurateRip signature : CF393152
->Accurately ripped! (confidence 1)
Statistics
Read error : 0
Skipped (treated as error) : 0
Edge jitter error (maybe fixed) : 0
Atom jitter error (maybe fixed) : 0
Drift error (maybe fixed) : 0
Dropped bytes error (maybe fixed) : 0
Duplicated bytes error (maybe fixed) : 0
Inconsistency in error sectors : 0
Track 02
Filename : /Volumes/External HDD/Torrenst (Created)/Rosemary Clooney - Don't Worry 'Bout Me (2002) FLAC/02 - My Old Flame.flac
Pre-gap length : 00:02:00
Track gain : -3.85 dB
Peak : 0.999969
CRC32 hash (test run) : 492BCE48
CRC32 hash : 492BCE48
CRC32 hash (skip zero) : 6AA2B8D9
AccurateRip signature : 85006117
->Accurately ripped! (confidence 1)
Statistics
Read error : 0
Skipped (treated as error) : 0
Edge jitter error (maybe fixed) : 0
Atom jitter error (maybe fixed) : 0
Drift error (maybe fixed) : 0
Dropped bytes error (maybe fixed) : 0
Duplicated bytes error (maybe fixed) : 0
Inconsistency in error sectors : 0
Track 03
Filename : /Volumes/External HDD/Torrenst (Created)/Rosemary Clooney - Don't Worry 'Bout Me (2002) FLAC/03 - As Long As I Live.flac
Pre-gap length : 00:02:00
Track gain : -6.72 dB
Peak : 0.999969
CRC32 hash (test run) : 7E0CA9B0
CRC32 hash : 7E0CA9B0
CRC32 hash (skip zero) : 6ED1CB4A
AccurateRip signature : E60FB269
->Accurately ripped! (confidence 1)
Statistics
Read error : 0
Skipped (treated as error) : 0
Edge jitter error (maybe fixed) : 0
Atom jitter error (maybe fixed) : 0
Drift error (maybe fixed) : 0
Dropped bytes error (maybe fixed) : 0
Duplicated bytes error (maybe fixed) : 0
Inconsistency in error sectors : 0
Track 04
Filename : /Volumes/External HDD/Torrenst (Created)/Rosemary Clooney - Don't Worry 'Bout Me (2002) FLAC/04 - Don't Worry 'Bout Me.flac
Pre-gap length : 00:02:00
Track gain : -2.40 dB
Peak : 0.999969
CRC32 hash (test run) : 5ECE9F6A
CRC32 hash : 5ECE9F6A
CRC32 hash (skip zero) : E0251924
AccurateRip signature : 1F60353F
->Accurately ripped! (confidence 1)
Statistics
Read error : 0
Skipped (treated as error) : 0
Edge jitter error (maybe fixed) : 0
Atom jitter error (maybe fixed) : 0
Drift error (maybe fixed) : 0
Dropped bytes error (maybe fixed) : 0
Duplicated bytes error (maybe fixed) : 0
Inconsistency in error sectors : 0
Track 05
Filename : /Volumes/External HDD/Torrenst (Created)/Rosemary Clooney - Don't Worry 'Bout Me (2002) FLAC/05 - Our Love Affair.flac
Pre-gap length : 00:02:00
Track gain : -4.35 dB
Peak : 0.999969
CRC32 hash (test run) : 02A8D64E
CRC32 hash : 02A8D64E
CRC32 hash (skip zero) : 3D50396D
AccurateRip signature : B4CE1A11
->Accurately ripped! (confidence 1)
Statistics
Read error : 0
Skipped (treated as error) : 0
Edge jitter error (maybe fixed) : 0
Atom jitter error (maybe fixed) : 0
Drift error (maybe fixed) : 0
Dropped bytes error (maybe fixed) : 0
Duplicated bytes error (maybe fixed) : 0
Inconsistency in error sectors : 0
Track 06
Filename : /Volumes/External HDD/Torrenst (Created)/Rosemary Clooney - Don't Worry 'Bout Me (2002) FLAC/06 - Shine.flac
Pre-gap length : 00:02:00
Track gain : -5.57 dB
Peak : 0.999969
CRC32 hash (test run) : 7D5A7CB0
CRC32 hash : 7D5A7CB0
CRC32 hash (skip zero) : A375D34F
AccurateRip signature : 3C4E1FA9
->Accurately ripped! (confidence 1)
Statistics
Read error : 0
Skipped (treated as error) : 0
Edge jitter error (maybe fixed) : 0
Atom jitter error (maybe fixed) : 0
Drift error (maybe fixed) : 0
Dropped bytes error (maybe fixed) : 0
Duplicated bytes error (maybe fixed) : 0
Inconsistency in error sectors : 0
Track 07
Filename : /Volumes/External HDD/Torrenst (Created)/Rosemary Clooney - Don't Worry 'Bout Me (2002) FLAC/07 - I'm Only Ambitious For You.flac
Pre-gap length : 00:02:00
Track gain : -3.08 dB
Peak : 0.999969
CRC32 hash (test run) : 23C13A31
CRC32 hash : 23C13A31
CRC32 hash (skip zero) : BF7AEDDA
AccurateRip signature : C5140E23
->Accurately ripped! (confidence 1)
Statistics
Read error : 0
Skipped (treated as error) : 0
Edge jitter error (maybe fixed) : 0
Atom jitter error (maybe fixed) : 0
Drift error (maybe fixed) : 0
Dropped bytes error (maybe fixed) : 0
Duplicated bytes error (maybe fixed) : 0
Inconsistency in error sectors : 0
Track 08
Filename : /Volumes/External HDD/Torrenst (Created)/Rosemary Clooney - Don't Worry 'Bout Me (2002) FLAC/08 - This Can't Be Love.flac
Pre-gap length : 00:02:00
Track gain : -8.38 dB
Peak : 0.999969
CRC32 hash (test run) : 80F7EC84
CRC32 hash : 80F7EC84
CRC32 hash (skip zero) : 960114C1
AccurateRip signature : 240B98ED
->Accurately ripped! (confidence 1)
Statistics
Read error : 0
Skipped (treated as error) : 0
Edge jitter error (maybe fixed) : 0
Atom jitter error (maybe fixed) : 0
Drift error (maybe fixed) : 0
Dropped bytes error (maybe fixed) : 0
Duplicated bytes error (maybe fixed) : 0
Inconsistency in error sectors : 0
Track 09
Filename : /Volumes/External HDD/Torrenst (Created)/Rosemary Clooney - Don't Worry 'Bout Me (2002) FLAC/09 - Tenderly.flac
Pre-gap length : 00:02:00
Track gain : -2.24 dB
Peak : 0.999969
CRC32 hash (test run) : A02B3A15
CRC32 hash : A02B3A15
CRC32 hash (skip zero) : 1B75B8DF
AccurateRip signature : D9114243
->Accurately ripped! (confidence 1)
Statistics
Read error : 0
Skipped (treated as error) : 0
Edge jitter error (maybe fixed) : 0
Atom jitter error (maybe fixed) : 0
Drift error (maybe fixed) : 0
Dropped bytes error (maybe fixed) : 0
Duplicated bytes error (maybe fixed) : 0
Inconsistency in error sectors : 0
Track 10
Filename : /Volumes/External HDD/Torrenst (Created)/Rosemary Clooney - Don't Worry 'Bout Me (2002) FLAC/10 - Half As Much.flac
Pre-gap length : 00:02:00
Track gain : -4.45 dB
Peak : 0.999969
CRC32 hash (test run) : B948AC3B
CRC32 hash : B948AC3B
CRC32 hash (skip zero) : 22D94535
AccurateRip signature : 41091055
->Accurately ripped! (confidence 1)
Statistics
Read error : 0
Skipped (treated as error) : 0
Edge jitter error (maybe fixed) : 0
Atom jitter error (maybe fixed) : 0
Drift error (maybe fixed) : 0
Dropped bytes error (maybe fixed) : 0
Duplicated bytes error (maybe fixed) : 0
Inconsistency in error sectors : 0
Track 11
Filename : /Volumes/External HDD/Torrenst (Created)/Rosemary Clooney - Don't Worry 'Bout Me (2002) FLAC/11 - South Rampart Street Parade.flac
Pre-gap length : 00:02:00
Track gain : -5.65 dB
Peak : 0.999969
CRC32 hash (test run) : E9C6DBBB
CRC32 hash : E9C6DBBB
CRC32 hash (skip zero) : 144F7E88
AccurateRip signature : D4E8D1E0
->Accurately ripped! (confidence 1)
Statistics
Read error : 0
Skipped (treated as error) : 0
Edge jitter error (maybe fixed) : 0
Atom jitter error (maybe fixed) : 0
Drift error (maybe fixed) : 0
Dropped bytes error (maybe fixed) : 0
Duplicated bytes error (maybe fixed) : 0
Inconsistency in error sectors : 0
Track 12
Filename : /Volumes/External HDD/Torrenst (Created)/Rosemary Clooney - Don't Worry 'Bout Me (2002) FLAC/12 - Who Kissed Me Last Night?.flac
Pre-gap length : 00:02:00
Track gain : -3.26 dB
Peak : 0.999969
CRC32 hash (test run) : CA648D9A
CRC32 hash : CA648D9A
CRC32 hash (skip zero) : 67AE3050
AccurateRip signature : 5CDDA83A
->Accurately ripped! (confidence 1)
Statistics
Read error : 0
Skipped (treated as error) : 0
Edge jitter error (maybe fixed) : 0
Atom jitter error (maybe fixed) : 0
Drift error (maybe fixed) : 0
Dropped bytes error (maybe fixed) : 0
Duplicated bytes error (maybe fixed) : 0
Inconsistency in error sectors : 0
Track 13
Filename : /Volumes/External HDD/Torrenst (Created)/Rosemary Clooney - Don't Worry 'Bout Me (2002) FLAC/13 - You'll Never Know.flac
Pre-gap length : 00:02:00
Track gain : -2.55 dB
Peak : 0.999969
CRC32 hash (test run) : 86C481DD
CRC32 hash : 86C481DD
CRC32 hash (skip zero) : F3C7070C
AccurateRip signature : 565568DF
->Accurately ripped! (confidence 1)
Statistics
Read error : 0
Skipped (treated as error) : 0
Edge jitter error (maybe fixed) : 0
Atom jitter error (maybe fixed) : 0
Drift error (maybe fixed) : 0
Dropped bytes error (maybe fixed) : 0
Duplicated bytes error (maybe fixed) : 0
Inconsistency in error sectors : 0
Track 14
Filename : /Volumes/External HDD/Torrenst (Created)/Rosemary Clooney - Don't Worry 'Bout Me (2002) FLAC/14 - Blues In The Night.flac
Pre-gap length : 00:02:00
Track gain : -3.48 dB
Peak : 0.999969
CRC32 hash (test run) : C2E1A467
CRC32 hash : C2E1A467
CRC32 hash (skip zero) : F337AEE0
AccurateRip signature : 5533DE92
->Accurately ripped! (confidence 1)
Statistics
Read error : 0
Skipped (treated as error) : 0
Edge jitter error (maybe fixed) : 0
Atom jitter error (maybe fixed) : 0
Drift error (maybe fixed) : 0
Dropped bytes error (maybe fixed) : 0
Duplicated bytes error (maybe fixed) : 0
Inconsistency in error sectors : 0
Track 15
Filename : /Volumes/External HDD/Torrenst (Created)/Rosemary Clooney - Don't Worry 'Bout Me (2002) FLAC/15 - I Do, I Do, I Do.flac
Pre-gap length : 00:02:00
Track gain : -5.85 dB
Peak : 0.999969
CRC32 hash (test run) : 257A6134
CRC32 hash : 257A6134
CRC32 hash (skip zero) : 98E74FA2
AccurateRip signature : E7289BF7
->Accurately ripped! (confidence 1)
Statistics
Read error : 0
Skipped (treated as error) : 0
Edge jitter error (maybe fixed) : 0
Atom jitter error (maybe fixed) : 0
Drift error (maybe fixed) : 0
Dropped bytes error (maybe fixed) : 0
Duplicated bytes error (maybe fixed) : 0
Inconsistency in error sectors : 0
Track 16
Filename : /Volumes/External HDD/Torrenst (Created)/Rosemary Clooney - Don't Worry 'Bout Me (2002) FLAC/16 - Lovely Weather For Ducks.flac
Pre-gap length : 00:01:74
Track gain : -4.00 dB
Peak : 0.999969
CRC32 hash (test run) : 984502FF
CRC32 hash : 984502FF
CRC32 hash (skip zero) : 4D598849
AccurateRip signature : A0BB83C6
->Accurately ripped! (confidence 1)
Statistics
Read error : 0
Skipped (treated as error) : 0
Edge jitter error (maybe fixed) : 0
Atom jitter error (maybe fixed) : 0
Drift error (maybe fixed) : 0
Dropped bytes error (maybe fixed) : 0
Duplicated bytes error (maybe fixed) : 0
Inconsistency in error sectors : 0
Track 17
Filename : /Volumes/External HDD/Torrenst (Created)/Rosemary Clooney - Don't Worry 'Bout Me (2002) FLAC/17 - Haven't Got A Worry To My Name.flac
Pre-gap length : 00:02:00
Track gain : -5.70 dB
Peak : 0.999969
CRC32 hash (test run) : 7FA23511
CRC32 hash : 7FA23511
CRC32 hash (skip zero) : 55BB11C6
AccurateRip signature : 79B96ACE
->Accurately ripped! (confidence 1)
Statistics
Read error : 0
Skipped (treated as error) : 0
Edge jitter error (maybe fixed) : 0
Atom jitter error (maybe fixed) : 0
Drift error (maybe fixed) : 0
Dropped bytes error (maybe fixed) : 0
Duplicated bytes error (maybe fixed) : 0
Inconsistency in error sectors : 0
Track 18
Filename : /Volumes/External HDD/Torrenst (Created)/Rosemary Clooney - Don't Worry 'Bout Me (2002) FLAC/18 - Lonely Am I.flac
Pre-gap length : 00:02:00
Track gain : -2.58 dB
Peak : 0.999969
CRC32 hash (test run) : ADF9E1E6
CRC32 hash : ADF9E1E6
CRC32 hash (skip zero) : E0CDB801
AccurateRip signature : 5C5E2AC3
->Accurately ripped! (confidence 1)
Statistics
Read error : 0
Skipped (treated as error) : 0
Edge jitter error (maybe fixed) : 0
Atom jitter error (maybe fixed) : 0
Drift error (maybe fixed) : 0
Dropped bytes error (maybe fixed) : 0
Duplicated bytes error (maybe fixed) : 0
Inconsistency in error sectors : 0
Track 19
Filename : /Volumes/External HDD/Torrenst (Created)/Rosemary Clooney - Don't Worry 'Bout Me (2002) FLAC/19 - It's Only A Papermoon.flac
Pre-gap length : 00:02:00
Track gain : -2.16 dB
Peak : 0.999969
CRC32 hash (test run) : 97649F94
CRC32 hash : 97649F94
CRC32 hash (skip zero) : 4C470B03
AccurateRip signature : F15356A0
->Accurately ripped! (confidence 1)
Statistics
Read error : 0
Skipped (treated as error) : 0
Edge jitter error (maybe fixed) : 0
Atom jitter error (maybe fixed) : 0
Drift error (maybe fixed) : 0
Dropped bytes error (maybe fixed) : 0
Duplicated bytes error (maybe fixed) : 0
Inconsistency in error sectors : 0
Track 20
Filename : /Volumes/External HDD/Torrenst (Created)/Rosemary Clooney - Don't Worry 'Bout Me (2002) FLAC/20 - You're In Kentucky Sure As You're Born.flac
Pre-gap length : 00:02:00
Track gain : -7.21 dB
Peak : 0.999969
CRC32 hash (test run) : B85DBBBD
CRC32 hash : B85DBBBD
CRC32 hash (skip zero) : 4EB2A9DF
AccurateRip signature : 74FECA36
->Accurately ripped! (confidence 1)
Statistics
Read error : 0
Skipped (treated as error) : 0
Edge jitter error (maybe fixed) : 0
Atom jitter error (maybe fixed) : 0
Drift error (maybe fixed) : 0
Dropped bytes error (maybe fixed) : 0
Duplicated bytes error (maybe fixed) : 0
Inconsistency in error sectors : 0
Track 21
Filename : /Volumes/External HDD/Torrenst (Created)/Rosemary Clooney - Don't Worry 'Bout Me (2002) FLAC/21 - Medley: A - These Foolish Things - B - We Just Couldn't Say Goodbye - C - You'd Be So Nice To Come Home.flac
Pre-gap length : 00:02:00
Track gain : -2.13 dB
Peak : 0.999969
CRC32 hash (test run) : 741EB3A9
CRC32 hash : 741EB3A9
CRC32 hash (skip zero) : 57CF8EB4
AccurateRip signature : 449FD3A4
->Accurately ripped! (confidence 1)
Statistics
Read error : 0
Skipped (treated as error) : 0
Edge jitter error (maybe fixed) : 0
Atom jitter error (maybe fixed) : 0
Drift error (maybe fixed) : 0
Dropped bytes error (maybe fixed) : 0
Duplicated bytes error (maybe fixed) : 0
Inconsistency in error sectors : 0
Track 22
Filename : /Volumes/External HDD/Torrenst (Created)/Rosemary Clooney - Don't Worry 'Bout Me (2002) FLAC/22 - It's A Most Unusual Day.flac
Pre-gap length : 00:02:00
Track gain : -6.19 dB
Peak : 0.999969
CRC32 hash (test run) : 77FB22F0
CRC32 hash : 77FB22F0
CRC32 hash (skip zero) : 48994AEC
AccurateRip signature : AADD7EDA
->Accurately ripped! (confidence 1)
Statistics
Read error : 0
Skipped (treated as error) : 0
Edge jitter error (maybe fixed) : 0
Atom jitter error (maybe fixed) : 0
Drift error (maybe fixed) : 0
Dropped bytes error (maybe fixed) : 0
Duplicated bytes error (maybe fixed) : 0
Inconsistency in error sectors : 0
Track 23
Filename : /Volumes/External HDD/Torrenst (Created)/Rosemary Clooney - Don't Worry 'Bout Me (2002) FLAC/23 - Tomorrow I'll Dream And Remember.flac
Pre-gap length : 00:02:00
Track gain : -4.61 dB
Peak : 0.999969
CRC32 hash (test run) : 2A01E4DC
CRC32 hash : 2A01E4DC
CRC32 hash (skip zero) : 3CC83C2A
AccurateRip signature : 316A52C0
->Accurately ripped! (confidence 1)
Statistics
Read error : 0
Skipped (treated as error) : 0
Edge jitter error (maybe fixed) : 0
Atom jitter error (maybe fixed) : 0
Drift error (maybe fixed) : 0
Dropped bytes error (maybe fixed) : 0
Duplicated bytes error (maybe fixed) : 0
Inconsistency in error sectors : 0
Track 24
Filename : /Volumes/External HDD/Torrenst (Created)/Rosemary Clooney - Don't Worry 'Bout Me (2002) FLAC/24 - Bad News.flac
Pre-gap length : 00:02:00
Track gain : -4.58 dB
Peak : 0.999969
CRC32 hash (test run) : 26E111FC
CRC32 hash : 26E111FC
CRC32 hash (skip zero) : 026F2FE6
AccurateRip signature : 7B61CE85
->Accurately ripped! (confidence 1)
Statistics
Read error : 0
Skipped (treated as error) : 0
Edge jitter error (maybe fixed) : 0
Atom jitter error (maybe fixed) : 0
Drift error (maybe fixed) : 0
Dropped bytes error (maybe fixed) : 0
Duplicated bytes error (maybe fixed) : 0
Inconsistency in error sectors : 0
Track 25
Filename : /Volumes/External HDD/Torrenst (Created)/Rosemary Clooney - Don't Worry 'Bout Me (2002) FLAC/25 - Chicago Style.flac
Pre-gap length : 00:02:00
Track gain : -6.36 dB
Peak : 0.999969
CRC32 hash (test run) : 47E77CEA
CRC32 hash : 47E77CEA
CRC32 hash (skip zero) : 8831E37A
AccurateRip signature : CBF700F6
->Accurately ripped! (confidence 1)
Statistics
Read error : 0
Skipped (treated as error) : 0
Edge jitter error (maybe fixed) : 0
Atom jitter error (maybe fixed) : 0
Drift error (maybe fixed) : 0
Dropped bytes error (maybe fixed) : 0
Duplicated bytes error (maybe fixed) : 0
Inconsistency in error sectors : 0
No errors occurred
End of status report
 
Содержание индексной карты (.CUE)
TITLE "Don't Worry 'Bout Me"
PERFORMER "Rosemary Clooney"
REM GENRE "Jazz"
REM DATE 2002
REM DISCID 65100219
FILE "01. You Make Me Feel So Young.flac" WAVE
TRACK 01 AUDIO
TITLE "You Make Me Feel So Young"
ISRC DEG730212311
INDEX 01 00:00:00
TRACK 02 AUDIO
TITLE "My Old Flame"
ISRC DEG730212312
INDEX 00 02:50:56
FILE "02. My Old Flame.flac" WAVE
INDEX 01 00:00:00
TRACK 03 AUDIO
TITLE "As Long As I Live"
ISRC DEG730212313
INDEX 00 03:07:52
FILE "03. As Long As I Live.flac" WAVE
INDEX 01 00:00:00
TRACK 04 AUDIO
TITLE "Don't Worry 'Bout Me"
ISRC DEG730212314
INDEX 00 02:13:22
FILE "04. Don't Worry 'Bout Me.flac" WAVE
INDEX 01 00:00:00
TRACK 05 AUDIO
TITLE "Our Love Affair"
ISRC DEG730212315
INDEX 00 02:52:56
FILE "05. Our Love Affair.flac" WAVE
INDEX 01 00:00:00
TRACK 06 AUDIO
TITLE "Shine"
ISRC DEG730212316
INDEX 00 02:06:40
FILE "06. Shine.flac" WAVE
INDEX 01 00:00:00
TRACK 07 AUDIO
TITLE "I'm Only Ambitious For You"
ISRC DEG730212317
INDEX 00 01:25:41
FILE "07. I'm Only Ambitious For You.flac" WAVE
INDEX 01 00:00:00
TRACK 08 AUDIO
TITLE "This Can't Be Love"
ISRC DEG730212318
INDEX 00 02:58:55
FILE "08. This Can't Be Love.flac" WAVE
INDEX 01 00:00:00
TRACK 09 AUDIO
TITLE "Tenderly"
ISRC DEG730212319
INDEX 00 01:37:19
FILE "09. Tenderly.flac" WAVE
INDEX 01 00:00:00
TRACK 10 AUDIO
TITLE "Half As Much"
ISRC DEG730212320
INDEX 00 02:57:44
FILE "10. Half As Much.flac" WAVE
INDEX 01 00:00:00
TRACK 11 AUDIO
TITLE "South Rampart Street Parade"
ISRC DEG730212321
INDEX 00 02:20:62
FILE "11. South Rampart Street Parade.flac" WAVE
INDEX 01 00:00:00
TRACK 12 AUDIO
TITLE "Who Kissed Me Last Night?"
ISRC DEG730212322
INDEX 00 03:31:53
FILE "12. Who Kissed Me Last Night.flac" WAVE
INDEX 01 00:00:00
TRACK 13 AUDIO
TITLE "You'll Never Know"
ISRC DEG730212323
INDEX 00 02:32:62
FILE "13. You'll Never Know.flac" WAVE
INDEX 01 00:00:00
TRACK 14 AUDIO
TITLE "Blues In The Night"
ISRC DEG730212324
INDEX 00 02:29:47
FILE "14. Blues In The Night.flac" WAVE
INDEX 01 00:00:00
TRACK 15 AUDIO
TITLE "I Do, I Do, I Do"
ISRC DEG730212325
INDEX 00 03:24:72
FILE "15. I Do, I Do, I Do.flac" WAVE
INDEX 01 00:00:00
TRACK 16 AUDIO
TITLE "Lovely Weather For Ducks"
ISRC DEG730212326
INDEX 00 02:57:40
FILE "16. Lovely Weather For Ducks.flac" WAVE
INDEX 01 00:00:00
TRACK 17 AUDIO
TITLE "Haven't Got A Worry To My Name"
ISRC DEG730212327
INDEX 00 02:28:39
FILE "17. Haven't Got A Worry To My Name.flac" WAVE
INDEX 01 00:00:00
TRACK 18 AUDIO
TITLE "Lonely Am I"
ISRC DEG730212328
INDEX 00 02:09:54
FILE "18. Lonely Am I.flac" WAVE
INDEX 01 00:00:00
TRACK 19 AUDIO
TITLE "It's Only A Paper Moon"
ISRC DEG730212329
INDEX 00 03:34:17
FILE "19. It's Only A Paper Moon.flac" WAVE
INDEX 01 00:00:00
TRACK 20 AUDIO
TITLE "You're In Kentucky Sure As You're Born"
ISRC DEG730212330
INDEX 00 02:27:12
FILE "20. You're In Kentucky Sure As You're Born.flac" WAVE
INDEX 01 00:00:00
TRACK 21 AUDIO
TITLE "Medley: These Foolish Things / We Just Couldn't Say Goodbye / You'd Be So Nice To Come Home"
ISRC DEG730212331
INDEX 00 02:05:72
FILE "21. Medley.flac" WAVE
INDEX 01 00:00:00
TRACK 22 AUDIO
TITLE "It's A Most Unusual Day"
ISRC DEG730212332
INDEX 00 05:14:61
FILE "22. It's A Most Unusual Day.flac" WAVE
INDEX 01 00:00:00
TRACK 23 AUDIO
TITLE "Tomorrow I'll Dream And Remember"
ISRC DEG730212333
INDEX 00 01:47:03
FILE "23. Tomorrow I'll Dream And Remember.flac" WAVE
INDEX 01 00:00:00
TRACK 24 AUDIO
TITLE "Bad News"
ISRC DEG730212334
INDEX 00 03:13:20
FILE "24. Bad News.flac" WAVE
INDEX 01 00:00:00
TRACK 25 AUDIO
TITLE "Chicago Style"
ISRC DEG730212335
INDEX 00 02:03:03
FILE "25. Chicago Style.flac" WAVE
INDEX 01 00:00:00
 
CUETools log
[CUETools log; Date: 13.08.2013 19:55:42; Version: 2.0.9]
[CTDB TOCID: EP1WGuOKH9ZIPfQyxedMDhH5Ias-] disk not present in database.
[AccurateRip ID: 003b6711-04344acf-65100219] found.
Track [ CRC ] Status
01 [cf393152] (0/0) No match
02 [85006117] (0/0) No match
03 [e60fb269] (0/0) No match
04 [1f60353f] (0/0) No match
05 [b4ce1a11] (0/0) No match
06 [3c4e1fa9] (0/0) No match
07 [c5140e23] (0/0) No match
08 [240b98ed] (0/0) No match
09 [d9114243] (0/0) No match
10 [41091055] (0/0) No match
11 [d4e8d1e0] (0/0) No match
12 [5cdda83a] (0/0) No match
13 [565568df] (0/0) No match
14 [5533de92] (0/0) No match
15 [e7289bf7] (0/0) No match
16 [a0bb83c6] (0/0) No match
17 [79b96ace] (0/0) No match
18 [5c5e2ac3] (0/0) No match
19 [f15356a0] (0/0) No match
20 [74feca36] (0/0) No match
21 [449fd3a4] (0/0) No match
22 [aadd7eda] (0/0) No match
23 [316a52c0] (0/0) No match
24 [7b61ce85] (0/0) No match
25 [cbf700f6] (0/0) No match
Track Peak [ CRC32 ] [W/O NULL]
-- 100,0 [31D20133] [BDD9D1CA]
01 100,0 [2B97DF5B] [6EF78826]
02 99,9 [492BCE48] [6AA2B8D9]
03 99,9 [7E0CA9B0] [6ED1CB4A]
04 100,0 [5ECE9F6A] [E0251924]
05 99,9 [02A8D64E] [3D50396D]
06 99,9 [7D5A7CB0] [A375D34F]
07 99,9 [23C13A31] [BF7AEDDA]
08 99,9 [80F7EC84] [960114C1]
09 99,9 [A02B3A15] [1B75B8DF]
10 99,9 [B948AC3B] [22D94535]
11 100,0 [E9C6DBBB] [144F7E88]
12 100,0 [CA648D9A] [67AE3050]
13 100,0 [86C481DD] [F3C7070C]
14 99,9 [C2E1A467] [F337AEE0]
15 100,0 [257A6134] [98E74FA2]
16 100,0 [984502FF] [4D598849]
17 100,0 [7FA23511] [55BB11C6]
18 100,0 [ADF9E1E6] [E0CDB801]
19 99,9 [97649F94] [4C470B03]
20 100,0 [B85DBBBD] [4EB2A9DF]
21 99,9 [741EB3A9] [57CF8EB4]
22 99,9 [77FB22F0] [48994AEC]
23 99,9 [2A01E4DC] [3CC83C2A]
24 99,9 [26E111FC] [026F2FE6]
25 100,0 [47E77CEA] [8831E37A]
Any questions - support@pro-jazz.com. Есть вопросы - support@pro-jazz.com
10:40
287
Нет комментариев. Ваш будет первым!