Поиск

(Vocal, Jazz-pop, Bossa) Baichasong - Baichasong Sings Chatree {Audiophile} - 2011, FLAC (image+.cue), lossless

(Vocal, Jazz-pop, Bossa) Baichasong - Baichasong Sings Chatree {Audiophile} - 2011, FLAC (image+.cue), lossless
Треклист:
Baichasong - Baichasong Sings Chatree {Audiophile} (Unique song & Excellent sound)
Жанр: Vocal, Jazz-pop, Bossa
Страна-производитель диска: Thai
Год издания диска: 2011
Издатель (лейбл): Baichasong
Номер по каталогу: BSCD-13
Страна: Thai
Аудиокодек: FLAC (*.flac)
Тип рипа: image+.cue
Битрейт аудио: lossless
Продолжительность: 49:16
Источник (релизер): Owner Rip
Наличие сканов в содержимом раздачи: да
Треклист:
ไทย
01. อุ๊บอิ๊บส์ และ บรรณ / รักต้องตอบด้วยรัก [0:04:05.12]
02. สุเมธ องอาจ / ทะเลของเรา [0:04:07.22]
03. ธรรมรัตน์ แก้วมั่น (ลูกทุ่งไฮไฟ) / สักขีเจ้าพระยา [0:04:04.50]
04. สวีทนุช / รักครั้งแรก [0:03:51.50]
05. ชุติมา แก้วเนียม / เฉือนหัวใจ [0:04:06.61]
06. บรรณ / เธอเปลี่ยนใจ [0:04:03.13]
07. สายชล ระดมกิจ / ที่รักอย่าจากพี่ไป [0:04:01.26]
08. คณาคำ อภิรดี / เหมือนฝัน [0:03:58.69]
09. อุ๊บอิ๊บส์ / เข้าใจรัก [0:04:15.68]
10. อรสุรางค์ อุดจัง (ลูกทุ่งไฮไฟ) / รักเพียงเธอ [0:04:11.07]
11. ต้อง Funny Refill / รักเธอจนหมดหัวใจ [0:04:25.23]
12. บรรณ / อย่าลืมฉัน [0:04:04.59]
English
01. Oops Ips & Bun / Return Love With Love [0:04:05.12]
02. Sumeth / Our Sea [0:04:07.22]
03. Thammarat / Chao Pra-Ya River, My Witness [0:04:04.50]
04. Sweetnuj / First Love [0:03:51.50]
05. Chutima / Slashed Heart [0:04:06.61]
06. Bun / She Changed [0:04:03.13]
07. Saichol / Don't Leave Me [0:04:01.26]
08. Kana-Kum / Like A Dream [0:03:58.69]
09. Oops Ips / Learning To Love [0:04:15.68]
10. Ornsurang / Only You [0:04:11.07]
11. Tong Funny Refill / Love You With All My Heart [0:04:25.23]
12. Bun / Don't Forget Me [0:04:04.59]
 
Лог создания рипа
Exact Audio Copy V1.0 beta 1 from 15. November 2010
EAC extraction logfile from 18. July 2011, 15:29
Baichasong / Baichasong Sings Chatree
Used drive : PIONEER DVD-RW DVR-118L Adapter: 4 ID: 0
Read mode : Secure
Utilize accurate stream : Yes
Defeat audio cache : Yes
Make use of C2 pointers : No
Read offset correction : 6
Overread into Lead-In and Lead-Out : No
Fill up missing offset samples with silence : Yes
Delete leading and trailing silent blocks : No
Null samples used in CRC calculations : Yes
Used interface : Native Win32 interface for Win NT & 2000
Used output format : Internal WAV Routines
Sample format : 44.100 Hz; 16 Bit; Stereo
TOC of the extracted CD
Track | Start | Length | Start sector | End sector
---------------------------------------------------------
1 | 0:00.00 | 4:05.12 | 0 | 18386
2 | 4:05.12 | 4:07.22 | 18387 | 36933
3 | 8:12.34 | 4:04.50 | 36934 | 55283
4 | 12:17.09 | 3:51.50 | 55284 | 72658
5 | 16:08.59 | 4:06.61 | 72659 | 91169
6 | 20:15.45 | 4:03.13 | 91170 | 109407
7 | 24:18.58 | 4:01.26 | 109408 | 127508
8 | 28:20.09 | 3:58.69 | 127509 | 145427
9 | 32:19.03 | 4:15.68 | 145428 | 164620
10 | 36:34.71 | 4:11.07 | 164621 | 183452
11 | 40:46.03 | 4:25.23 | 183453 | 203350
12 | 45:11.26 | 4:04.59 | 203351 | 221709
Range status and errors
Selected range
Filename E:\YES ! We Speak Lossless @ ThailandTorrent\Baichasong - Baichasong Sings Chatree.wav
Peak level 100.0 %
Extraction speed 0.1 X
Range quality 100.0 %
Test CRC 11779F1B
Copy CRC 11779F1B
Copy OK
No errors occurred
AccurateRip summary
Track 1 not present in database
Track 2 not present in database
Track 3 not present in database
Track 4 not present in database
Track 5 not present in database
Track 6 not present in database
Track 7 not present in database
Track 8 not present in database
Track 9 not present in database
Track 10 not present in database
Track 11 not present in database
Track 12 not present in database
None of the tracks are present in the AccurateRip database
End of status report
==== Log checksum 1F5AA3E4F08527046C2645BBF4B1598401E73CBA55419AC3835C1A126399312A ====
 
Содержание индексной карты (.CUE)
REM GENRE Pop
REM DATE 2011
REM DISCID A30B8C0C
REM COMMENT "ExactAudioCopy v1.0b1"
PERFORMER "Baichasong"
TITLE "Baichasong Sings Chatree"
FILE "Baichasong - Baichasong Sings Chatree.flac" WAVE
TRACK 01 AUDIO
TITLE "Return Love With Love"
PERFORMER "Oops Ips & Bun"
FLAGS DCP
INDEX 01 00:00:00
TRACK 02 AUDIO
TITLE "Our Sea"
PERFORMER "Sumeth"
FLAGS DCP
INDEX 00 04:03:12
INDEX 01 04:05:12
TRACK 03 AUDIO
TITLE "Chao Pra-Ya, My Witness"
PERFORMER "Thammarat"
FLAGS DCP
INDEX 00 08:10:34
INDEX 01 08:12:34
TRACK 04 AUDIO
TITLE "First Love"
PERFORMER "Sweetnuj"
FLAGS DCP
INDEX 00 12:15:09
INDEX 01 12:17:09
TRACK 05 AUDIO
TITLE "Slashed Heart"
PERFORMER "Chutima"
FLAGS DCP
INDEX 00 16:06:59
INDEX 01 16:08:59
TRACK 06 AUDIO
TITLE "She Changed"
PERFORMER "Bun"
FLAGS DCP
INDEX 00 20:13:45
INDEX 01 20:15:45
TRACK 07 AUDIO
TITLE "Don't Leave Me"
PERFORMER "Saichol"
FLAGS DCP
INDEX 00 24:16:58
INDEX 01 24:18:58
TRACK 08 AUDIO
TITLE "Like A Dream"
PERFORMER "Kana-Kum"
FLAGS DCP
INDEX 00 28:18:09
INDEX 01 28:20:09
TRACK 09 AUDIO
TITLE "Learning To Love"
PERFORMER "Oops Ips"
FLAGS DCP
INDEX 00 32:17:03
INDEX 01 32:19:03
TRACK 10 AUDIO
TITLE "Only You"
PERFORMER "Ornsurang"
FLAGS DCP
INDEX 00 36:32:71
INDEX 01 36:34:71
TRACK 11 AUDIO
TITLE "Love You With All My Heart"
PERFORMER "Tong Funny Refill"
FLAGS DCP
INDEX 00 40:44:03
INDEX 01 40:46:03
TRACK 12 AUDIO
TITLE "Don't Forget Me"
PERFORMER "Bun"
FLAGS DCP
INDEX 00 45:09:26
INDEX 01 45:11:26
23:53
334
Нет комментариев. Ваш будет первым!