Поиск

(Contemporary Jazz) Michel Camilo — Thru My Eyes — 1997, FLAC (image+.cue), lossless

(Contemporary Jazz) Michel Camilo — Thru My Eyes — 1997, FLAC (image+.cue), lossless
Michel Camilo — Thru My Eyes
Жанр: Contemporary Jazz
Год издания диска: 1997
Издатель (лейбл): RMM Records
Номер по каталогу: RMD 82067
Аудиокодек: FLAC (*.flac)
Тип рипа: image+.cue
Битрейт аудио: lossless
Продолжительность: 63:46
Риппер: intothe
Наличие сканов в содержимом раздачи: да
Треклист:
01. Poinciana (5:08)
02. Perdido (5:08)
03. Watermelon Man (4:28)
04. A Night In Tunisia (6:10)
05. Song For My Father (6:04)
06. Armando's Rhumba (4:34)
07. St. Thomas (5:29)
08. Oye Como Va (3:43)
09. Afro Blue (6:07)
10. Mambo Inn (6:21)
11. My Little Suede Shoes (3:51)
12. Manteca (6:44)
 
 
Лог создания рипа
Exact Audio Copy V0.99 prebeta 5 from 4. May 2009
EAC extraction logfile from 21. August 2011, 8:24
Michel Camilo / Thru My Eyes
Used drive : _NEC DVD_RW ND-3500AG Adapter: 0 ID: 0
Read mode : Secure
Utilize accurate stream : Yes
Defeat audio cache : Yes
Make use of C2 pointers : No
Read offset correction : 48
Overread into Lead-In and Lead-Out : No
Fill up missing offset samples with silence : Yes
Delete leading and trailing silent blocks : No
Null samples used in CRC calculations : Yes
Used interface : Native Win32 interface for Win NT & 2000
Used output format : User Defined Encoder
Selected bitrate : 768 kBit/s
Quality : High
Add ID3 tag : No
Command line compressor : C:\Program Files\Exact Audio Copy\FLAC\FLAC.EXE
Additional command line options : -6 -V -T "ARTIST=%a" -T "TITLE=%t" -T "ALBUM=%g" -T "DATE=%y" -T "TRACKNUMBER=%n" -T "GENRE=%m" -T "COMMENT=%e" %s -o %d
TOC of the extracted CD
Track | Start | Length | Start sector | End sector
---------------------------------------------------------
1 | 0:00.00 | 5:08.32 | 0 | 23131
2 | 5:08.32 | 5:08.00 | 23132 | 46231
3 | 10:16.32 | 4:27.65 | 46232 | 66321
4 | 14:44.22 | 6:09.63 | 66322 | 94059
5 | 20:54.10 | 6:03.65 | 94060 | 121349
6 | 26:58.00 | 4:34.25 | 121350 | 141924
7 | 31:32.25 | 5:28.60 | 141925 | 166584
8 | 37:01.10 | 3:42.60 | 166585 | 183294
9 | 40:43.70 | 6:07.15 | 183295 | 210834
10 | 46:51.10 | 6:20.60 | 210835 | 239394
11 | 53:11.70 | 3:50.67 | 239395 | 256711
12 | 57:02.62 | 6:43.38 | 256712 | 286974
Range status and errors
Selected range
Filename J:\eMusic\Rip\Michel Camilo - Thru My Eyes.wav
Peak level 99.2 %
Range quality 100.0 %
Copy CRC 74BA3DD7
Copy OK
No errors occurred
AccurateRip summary
Track 1 accurately ripped (confidence 9) [9204694E]
Track 2 accurately ripped (confidence 9) [81567B4B]
Track 3 accurately ripped (confidence 9) [ED244A6F]
Track 4 accurately ripped (confidence 9) [818BEAF1]
Track 5 accurately ripped (confidence 9) [8FEE2EFA]
Track 6 accurately ripped (confidence 9) [D8FC4952]
Track 7 accurately ripped (confidence 9) [5933A78C]
Track 8 accurately ripped (confidence 9) [68DECB61]
Track 9 accurately ripped (confidence 9) [A3EDAA69]
Track 10 accurately ripped (confidence 9) [D8196078]
Track 11 accurately ripped (confidence 9) [14AD7171]
Track 12 accurately ripped (confidence 8) [DD5E791B]
All tracks accurately ripped
End of status report
 
Содержание индексной карты (.CUE)
REM GENRE Jazz
REM DATE 1997
REM DISCID 9B0EF20C
REM COMMENT "ExactAudioCopy v0.99pb5"
PERFORMER "Michel Camilo"
TITLE "Thru My Eyes"
FILE "Michel Camilo - Thru My Eyes.flac" WAVE
TRACK 01 AUDIO
TITLE "Poinciana"
PERFORMER "Michel Camilo"
INDEX 01 00:00:00
TRACK 02 AUDIO
TITLE "Perdido"
PERFORMER "Michel Camilo"
INDEX 00 05:04:62
INDEX 01 05:08:32
TRACK 03 AUDIO
TITLE "Watermelon Man"
PERFORMER "Michel Camilo"
INDEX 00 10:13:47
INDEX 01 10:16:32
TRACK 04 AUDIO
TITLE "A Night In Tunisia"
PERFORMER "Michel Camilo"
INDEX 00 14:42:62
INDEX 01 14:44:22
TRACK 05 AUDIO
TITLE "Song For My Father"
PERFORMER "Michel Camilo"
INDEX 00 20:52:17
INDEX 01 20:54:10
TRACK 06 AUDIO
TITLE "Armando's Rhumba"
PERFORMER "Michel Camilo"
INDEX 00 26:54:62
INDEX 01 26:58:00
TRACK 07 AUDIO
TITLE "St. Thomas"
PERFORMER "Michel Camilo"
INDEX 00 31:30:25
INDEX 01 31:32:25
TRACK 08 AUDIO
TITLE "Oye Como Va"
PERFORMER "Michel Camilo"
INDEX 00 36:59:02
INDEX 01 37:01:10
TRACK 09 AUDIO
TITLE "Afro Blue"
PERFORMER "Michel Camilo"
INDEX 00 40:41:17
INDEX 01 40:43:70
TRACK 10 AUDIO
TITLE "Mambo Inn"
PERFORMER "Michel Camilo"
INDEX 00 46:48:25
INDEX 01 46:51:10
TRACK 11 AUDIO
TITLE "My Little Suede Shoes"
PERFORMER "Michel Camilo"
INDEX 00 53:10:32
INDEX 01 53:11:70
TRACK 12 AUDIO
TITLE "Manteca"
PERFORMER "Michel Camilo"
INDEX 00 57:01:60
INDEX 01 57:02:62
 
Состав
Michel Camilo (Piano)
Anthony Jackson (Contrabass Guitar) - 3, 6, 8, 10-12
Horacio Hernandez (Drums) - 2, 4-6, 8, 10
Cliff Almond (Drums) - 1, 3, 7, 9, 11, 12
Lincoln Goines (Bass) - 1, 7, 9
John Patitucci (Bass) - 2, 4, 5
23:54
365
Нет комментариев. Ваш будет первым!