Вы используете незарегистрированную версию компонента "Вкладки"!

Поиск

(Vocal Jazz) Etta Jones - The Savoy Recordings - 2007, FLAC (image+.cue) lossless

(Vocal Jazz) Etta Jones - The Savoy Recordings - 2007, FLAC (image+.cue) lossless
Треклист:
Etta Jones - The Savoy Recordings
Жанр: Vocal Jazz
Год издания диска: 2007 (rec. 1977-1987)
Издатель (лейбл): Brilliant Jazz
Номер по каталогу: 8696
Аудио кодек: FLAC (*.flac)
Тип рипа: image+.cue
Битрейт аудио: lossless
Продолжительность: 46:59
Источник (релизер): garet jax (hqshare)
Наличие сканов в содержимом раздачи: да
Треклист:
01. The Way You Look Tonight (Kern-Fields)
02. Georgia on My Mind (Carmichael-Gorrell)
03. The One I Love (Jones-Kahn)
04. Be My Love (Cahn-Brodszky)
05. My Mother's Eyes (Gilbert-Beer)
06. Save Your Love for Me (Johnson)
07. Why Was I Born? (Hammerstein II-Kern)
08. Stardust (Carmichael-Parrish)
09. I Think I'll Tell Him (Creed-Bell)
10. Etta's Blues (Jones)
 
Лог создания рипа
Exact Audio Copy V0.99 prebeta 4 from 23. January 2008
EAC extraction logfile from 6. October 2008, 20:09
Etta Jones / The Savoy Recordings
Used drive : LITE-ON CD-RW SOHR-5238S Adapter: 1 ID: 1
Read mode : Secure
Utilize accurate stream : Yes
Defeat audio cache : Yes
Make use of C2 pointers : No
Read offset correction : 6
Overread into Lead-In and Lead-Out : No
Fill up missing offset samples with silence : Yes
Delete leading and trailing silent blocks : No
Null samples used in CRC calculations : Yes
Used interface : Installed external ASPI interface
Used output format : Internal WAV Routines
Sample format : 44.100 Hz; 16 Bit; Stereo
TOC of the extracted CD
Track | Start | Length | Start sector | End sector
---------------------------------------------------------
1 | 0:00.00 | 4:49.57 | 0 | 21731
2 | 4:49.57 | 4:33.53 | 21732 | 42259
3 | 9:23.35 | 3:08.25 | 42260 | 56384
4 | 12:31.60 | 5:49.45 | 56385 | 82604
5 | 18:21.30 | 5:49.22 | 82605 | 108801
6 | 24:10.52 | 5:03.05 | 108802 | 131531
7 | 29:13.57 | 3:26.60 | 131532 | 147041
8 | 32:40.42 | 4:26.08 | 147042 | 166999
9 | 37:06.50 | 4:55.25 | 167000 | 189149
10 | 42:02.00 | 4:57.32 | 189150 | 211456
Range status and errors
Selected range
Filename I:\rips\EJ SR\Etta Jones - The Savoy Recordings.wav
Peak level 100.0 %
Range quality 100.0 %
Test CRC 1B0599C6
Copy CRC 1B0599C6
Copy OK
No errors occurred
End of status report
 
Содержание индексной карты (.CUE)
REM GENRE Vocal
REM DISCID 7D0B030A
REM COMMENT "ExactAudioCopy v0.99pb4"
PERFORMER "Etta Jones"
TITLE "The Savoy Recordings"
FILE "Etta Jones - The Savoy Recordings.wav" WAVE
TRACK 01 AUDIO
TITLE "The Way You Look Tonight"
PERFORMER "Etta Jones"
INDEX 01 00:00:00
TRACK 02 AUDIO
TITLE "Georgia on My Mind"
PERFORMER "Etta Jones"
INDEX 00 04:48:12
INDEX 01 04:49:57
TRACK 03 AUDIO
TITLE "The One I Love"
PERFORMER "Etta Jones"
INDEX 00 09:21:47
INDEX 01 09:23:35
TRACK 04 AUDIO
TITLE "Be My Love"
PERFORMER "Etta Jones"
INDEX 00 12:30:10
INDEX 01 12:31:60
TRACK 05 AUDIO
TITLE "My Mother's Eyes"
PERFORMER "Etta Jones"
INDEX 00 18:20:07
INDEX 01 18:21:30
TRACK 06 AUDIO
TITLE "Save Your Love for Me"
PERFORMER "Etta Jones"
INDEX 00 24:09:02
INDEX 01 24:10:52
TRACK 07 AUDIO
TITLE "Why Was I Born?"
PERFORMER "Etta Jones"
INDEX 00 29:12:20
INDEX 01 29:13:57
TRACK 08 AUDIO
TITLE "Stardust"
PERFORMER "Etta Jones"
INDEX 00 32:38:70
INDEX 01 32:40:42
TRACK 09 AUDIO
TITLE "I Think I'll Tell Him"
PERFORMER "Etta Jones"
INDEX 00 37:05:12
INDEX 01 37:06:50
TRACK 10 AUDIO
TITLE "Etta's Blues"
PERFORMER "Etta Jones"
INDEX 00 42:00:17
INDEX 01 42:02:00
Any questions - support@pro-jazz.com. Есть вопросы - support@pro-jazz.com
22:05
351
Нет комментариев. Ваш будет первым!