Вы используете незарегистрированную версию компонента "Вкладки"!

Поиск

(Female Vocal Jazz) Connie Evingson - Little Did I Dream - 2008, FLAC (image+.cue) lossless

Треклист:
Connie Evingson - Little Did I Dream
Жанр: Female Vocal Jazz
Страна-производитель диска: USA
Год издания диска: 2008
Издатель (лейбл): Minnehaha Music
Страна: USA
Аудио кодек: FLAC (*.flac)
Тип рипа: image+.cue
Битрейт аудио: lossless
Продолжительность: 52:19
Источник (релизер): rfccbh
Наличие сканов в содержимом раздачи: да
Треклист:
1. Little Did I Dream 4:04
2. Peel Me a Grape 4:14
3. Our Love Rolls On 3:39
4. Zanzibar 3:25
5. Can't Take You Nowhere 3:27
6. Heart's Desire 3:08
7. Wheelers and Dealers 3:33
8. Zoot Walks In 3:46
9. Eastwood Lane 4:32
10. You Are There 2:58
11. I Want to Be a Sideman 3:37
12. My Attorney Bernie 4:34
13. Snowbound 3:44
14. Listen Here 3:32
 
Лог создания рипа
Exact Audio Copy V1.0 beta 1 from 15. November 2010
EAC extraction logfile from 6. April 2011, 21:01
Connie Evingson / David Frishberg / Little Did I Dream
Used drive : Optiarc DVD RW AD-7200S Adapter: 3 ID: 0
Read mode : Secure
Utilize accurate stream : Yes
Defeat audio cache : Yes
Make use of C2 pointers : No
Read offset correction : 48
Overread into Lead-In and Lead-Out : No
Fill up missing offset samples with silence : Yes
Delete leading and trailing silent blocks : No
Null samples used in CRC calculations : Yes
Used interface : Native Win32 interface for Win NT & 2000
Used output format : User Defined Encoder
Selected bitrate : 768 kBit/s
Quality : High
Add ID3 tag : No
Command line compressor : C:\Program Files (x86)\Exact Audio Copy\FLAC\FLAC.EXE
Additional command line options : -8 -V %s
TOC of the extracted CD
Track | Start | Length | Start sector | End sector
---------------------------------------------------------
1 | 0:00.00 | 4:04.11 | 0 | 18310
2 | 4:04.11 | 4:14.53 | 18311 | 37413
3 | 8:18.64 | 3:39.43 | 37414 | 53881
4 | 11:58.32 | 3:25.24 | 53882 | 69280
5 | 15:23.56 | 3:27.70 | 69281 | 84875
6 | 18:51.51 | 3:08.09 | 84876 | 98984
7 | 21:59.60 | 3:33.38 | 98985 | 114997
8 | 25:33.23 | 3:46.07 | 114998 | 131954
9 | 29:19.30 | 4:32.64 | 131955 | 152418
10 | 33:52.19 | 2:58.20 | 152419 | 165788
11 | 36:50.39 | 3:37.13 | 165789 | 182076
12 | 40:27.52 | 4:34.72 | 182077 | 202698
13 | 45:02.49 | 3:44.28 | 202699 | 219526
14 | 48:47.02 | 3:32.12 | 219527 | 235438
Range status and errors
Selected range
Filename C:\rfccbh\Connie Evingson - David Frishberg , Little Did I Dream.wav
Peak level 98.9 %
Extraction speed 0.2 X
Range quality 100.0 %
Test CRC BD2C99F6
Copy CRC BD2C99F6
Copy OK
No errors occurred
AccurateRip summary
Track 1 accurately ripped (confidence 1) [8C4DEAF1]
Track 2 accurately ripped (confidence 1) [F879F163]
Track 3 accurately ripped (confidence 1) [724AD8C7]
Track 4 accurately ripped (confidence 1) [A772F36D]
Track 5 accurately ripped (confidence 1) [1A59D28D]
Track 6 accurately ripped (confidence 1) [120C475D]
Track 7 accurately ripped (confidence 1) [F5414A30]
Track 8 accurately ripped (confidence 1) [1A9A9B04]
Track 9 accurately ripped (confidence 1) [BF83EC2D]
Track 10 accurately ripped (confidence 1) [45A4943F]
Track 11 accurately ripped (confidence 1) [AB363E28]
Track 12 accurately ripped (confidence 1) [C8D660C9]
Track 13 accurately ripped (confidence 1) [BCE96F91]
Track 14 accurately ripped (confidence 1) [8FD691B6]
All tracks accurately ripped
End of status report
 
Содержание индексной карты (.CUE)
REM GENRE Jazz
REM DATE 2008
REM DISCID 9C0C430E
REM COMMENT "ExactAudioCopy v1.0b1"
PERFORMER "Connie Evingson"
TITLE "David Frishberg / Little Did I Dream"
FILE "Connie Evingson - David Frishberg , Little Did I Dream.flac" WAVE
TRACK 01 AUDIO
TITLE "Little Did I Dream"
PERFORMER "Connie Evingson"
INDEX 01 00:00:00
TRACK 02 AUDIO
TITLE "Peel Me a Grape"
PERFORMER "Connie Evingson"
INDEX 00 04:00:31
INDEX 01 04:04:11
TRACK 03 AUDIO
TITLE "Our Love ROlls On"
PERFORMER "Connie Evingson"
INDEX 00 08:15:09
INDEX 01 08:18:64
TRACK 04 AUDIO
TITLE "Zanzibar"
PERFORMER "Connie Evingson"
INDEX 00 11:54:52
INDEX 01 11:58:32
TRACK 05 AUDIO
TITLE "Can't Take You Nowhere"
PERFORMER "Connie Evingson"
INDEX 00 15:20:01
INDEX 01 15:23:56
TRACK 06 AUDIO
TITLE "Heart's Desire"
PERFORMER "Connie Evingson"
INDEX 00 18:47:71
INDEX 01 18:51:51
TRACK 07 AUDIO
TITLE "Wheelers and Dealers"
PERFORMER "Connie Evingson"
INDEX 00 21:56:05
INDEX 01 21:59:60
TRACK 08 AUDIO
TITLE "Zoot Walks In"
PERFORMER "Connie Evingson"
INDEX 00 25:29:43
INDEX 01 25:33:23
TRACK 09 AUDIO
TITLE "Eastwood Lake"
PERFORMER "Connie Evingson"
INDEX 00 29:15:50
INDEX 01 29:19:30
TRACK 10 AUDIO
TITLE "You Are There"
PERFORMER "Connie Evingson"
INDEX 00 33:48:39
INDEX 01 33:52:19
TRACK 11 AUDIO
TITLE "I Want a Sideman"
PERFORMER "Connie Evingson"
INDEX 00 36:46:59
INDEX 01 36:50:39
TRACK 12 AUDIO
TITLE "My Attorney Bernie"
PERFORMER "Connie Evingson"
INDEX 00 40:23:72
INDEX 01 40:27:52
TRACK 13 AUDIO
TITLE "Snowbound"
PERFORMER "Connie Evingson"
INDEX 00 44:58:69
INDEX 01 45:02:49
TRACK 14 AUDIO
TITLE "Listen Here"
PERFORMER "Connie Evingson"
INDEX 00 48:43:22
INDEX 01 48:47:02
 
Об альбоме (сборнике)
The late Tip O'Neill once said, .."All politics is local." This certainly can be said for jazz also. All of America's metropolitan areas have a jazz contingency. Chicago has Kurt Elling, Patricia Barber, and Von Freeman; Washington DC has Buck Hill; and New York has who knows how many? The Twin Cities, Minneapolis-St. Paul, also has noted jazz talent in Dave Frishberg and vocalist Connie Evingson.
Pianist/vocalist Frishberg, a native of St. Paul, has a long jazz résumé that includes School House Rock (Rhino, 1996), as well as having written numerous songs recorded by Blossom Dearie, Mel Tormé, Rosemary Clooney, Diana Krall and Tony Bennett. Frishberg exists in a rarified realm where his only peers in jazz songwriting are the great Mose Allison and Bob Dorough.
For her part, Connie Evingson has released a spate of fine recordings that include Let It Be Jazz (Summit, 2003), The Secret of Christmas (Minnehaha Music, 2003) and Gypsy in My Soul (Minnehaha Music, 2005). With the release of Let It Be Jazz, a collection of Beatles tunes, Evingson began a successful run of thematic recordings that addressed holiday fare and Le Hot Club Django. Continuing in this direction, Evingson rolls out a festive collection of Frishberg classics, illustrating why Frishberg and Evingson are such essential fixtures to 21st Century jazz.
Frishberg's fresh, smart lyrics are well-delivered by the ultra-hip Evingson, who reveals through her immense talent the diamonds that are Frishberg's lyrics. The title song, as well as the beautifully sexy "Peel Me a Grape," reveals Frishberg as a masterful poet and lyricist in the same vein as Ira Gershwin, Oscar Hammerstein, and Lorenz Hart. He is a master of the internal rhyme, an essential component to any successful lyric writing.
Evingson's vocals are certain and sure. She deftly navigates the strolling' "Zoot Walks In," joined by Frishberg in the introduction, where the singer's vocalese power is displayed as well as Frishberg's keen pianism. "I Want to be a Sideman" quotes Glenn Miller's "In the Mood" musically and a musician's simple wish to be, not the leader, but a part of a band. "My Attorney Bernie" is great fun. Evingson and Frishberg swing for the fences and knock it out with Little Did I Dream.
 
Состав
Connie Evingson: vocals
Dave Frishberg: piano (vocal on track 13);
Gordy Johnson: bass
Phil Hey: drums
Dave Karr: flute, tenor and baritone saxophone, narration (8)
Mark Henderson: tenor saxophone (5, 8).
 
Connie Evingson на Youtube
Any questions -> support@pro-jazz.com. По всем вопросам пишите -> support@pro-jazz.com
22:04
295
Нет комментариев. Ваш будет первым!