Поиск

(Vocal Jazz) [CD] Sammy Davis Jr. - All-Star Spectacular - (1962) 2004, FLAC (image+.cue), lossless

(Vocal Jazz) [CD] Sammy Davis Jr. - All-Star Spectacular - (1962) 2004, FLAC (image+.cue), lossless
Треклист:
Sammy Davis Jr. - All-Star Spectacular
Жанр: Vocal Jazz
Носитель: CD
Страна-производитель диска (релиза): Europe
Год издания: 1962/2004
Издатель (лейбл): Reprise
Номер по каталогу: 8122-76530-2
Страна исполнителя (группы): USA
Аудиокодек: FLAC (*.flac)
Тип рипа: image+.cue
Битрейт аудио: lossless
Продолжительность: 00:38:42
Источник (релизер): NotoriousPAC (Redacted)
Наличие сканов: Под "спойлером" (с Discogs)
Треклист:
01. That Lucky Old Sun [5:27]
02. Be My Love [3:28]
03. Lulu's Back In Town [2:58]
04. Stranger In Paradise [2:40]
05. Ballerina [2:58]
06. Sonny Boy [4:02]
07. I Married An Angel [2:02]
08. Falling In Love Again [3:29]
09. You Can't Love 'Em All [3:10]
10. If You Are But A Dream [2:35]
11. 'Deed I Do [2:14]
12. Without A Song [3:39]
 
Обложка с Discogs
 
Лог создания рипа
X Lossless Decoder version 20140504 (147.0)
XLD extraction logfile from 2014-07-25 18:02:01 -0500
Sammy Davis Jr. / The Sammy Davis Jr. All-Star Spectacular
Used drive : OPTIARC DVD RW AD-5680H (revision 3AHF)
Media type : Pressed CD
Ripper mode : XLD Secure Ripper
Disable audio cache : OK for the drive with a cache less than 1375KiB
Make use of C2 pointers : NO
Read offset correction : 48
Max retry count : 100
Gap status : Analyzed, Appended (except HTOA)
TOC of the extracted CD
Track | Start | Length | Start sector | End sector
---------------------------------------------------------
1 | 00:00:00 | 05:27:29 | 0 | 24553
2 | 05:27:29 | 03:28:21 | 24554 | 40174
3 | 08:55:50 | 02:57:63 | 40175 | 53512
4 | 11:53:38 | 02:40:21 | 53513 | 65533
5 | 14:33:59 | 02:57:41 | 65534 | 78849
6 | 17:31:25 | 04:01:40 | 78850 | 96964
7 | 21:32:65 | 02:02:15 | 96965 | 106129
8 | 23:35:05 | 03:28:43 | 106130 | 121772
9 | 27:03:48 | 03:10:21 | 121773 | 136043
10 | 30:13:69 | 02:34:68 | 136044 | 147661
11 | 32:48:62 | 02:14:09 | 147662 | 157720
12 | 35:02:71 | 03:39:11 | 157721 | 174156
AccurateRip Summary (DiscID: 00125b86-00a713f7-9b09120c)
Track 01 : OK (v1+v2, confidence 2/2)
Track 02 : OK (v1+v2, confidence 2/2)
Track 03 : OK (v1+v2, confidence 2/2)
Track 04 : OK (v1+v2, confidence 2/2)
Track 05 : OK (v1+v2, confidence 2/2)
Track 06 : OK (v1+v2, confidence 2/2)
Track 07 : OK (v1+v2, confidence 2/2)
Track 08 : OK (v1+v2, confidence 2/2)
Track 09 : OK (v1+v2, confidence 2/2)
Track 10 : OK (v1+v2, confidence 2/2)
Track 11 : OK (v1+v2, confidence 2/2)
Track 12 : OK (v1+v2, confidence 2/2)
->All tracks accurately ripped.
All Tracks
Album gain : -5.46 dB
Peak : 0.954834
Statistics
Read error : 0
Jitter error (maybe fixed) : 0
Retry sector count : 1
Damaged sector count : 0
Track 01
Filename : /Users/Goodman/Desktop/Seed/Sammy Davis Jr. - The Sammy Davis Jr. All-Star Spectacular (2004) [FLAC]/01 That Lucky Old Sun.flac
Pre-gap length : 00:02:00
Track gain : -5.96 dB
Peak : 0.928528
CRC32 hash (test run) : AA191D76
CRC32 hash : AA191D76
CRC32 hash (skip zero) : C909D13A
AccurateRip v1 signature : D9032A03
AccurateRip v2 signature : 748F919F
->Accurately ripped (v1+v2, confidence 1+1/2)
Statistics
Read error : 0
Jitter error (maybe fixed) : 0
Retry sector count : 0
Damaged sector count : 0
Track 02
Filename : /Users/Goodman/Desktop/Seed/Sammy Davis Jr. - The Sammy Davis Jr. All-Star Spectacular (2004) [FLAC]/02 Be My Love.flac
Pre-gap length : 00:03:19
Track gain : -4.17 dB
Peak : 0.939178
CRC32 hash (test run) : 8C86CA5C
CRC32 hash : 8C86CA5C
CRC32 hash (skip zero) : 10D66FC6
AccurateRip v1 signature : E43016C2
AccurateRip v2 signature : 11339E01
->Accurately ripped (v1+v2, confidence 1+1/2)
Statistics
Read error : 0
Jitter error (maybe fixed) : 0
Retry sector count : 0
Damaged sector count : 0
Track 03
Filename : /Users/Goodman/Desktop/Seed/Sammy Davis Jr. - The Sammy Davis Jr. All-Star Spectacular (2004) [FLAC]/03 Lulu's Back In Town.flac
Pre-gap length : 00:03:42
Track gain : -6.91 dB
Peak : 0.954834
CRC32 hash (test run) : FD94D2C7
CRC32 hash : FD94D2C7
CRC32 hash (skip zero) : F4FC87B4
AccurateRip v1 signature : 13110988
AccurateRip v2 signature : CE71B837
->Accurately ripped (v1+v2, confidence 1+1/2)
Statistics
Read error : 0
Jitter error (maybe fixed) : 0
Retry sector count : 0
Damaged sector count : 0
Track 04
Filename : /Users/Goodman/Desktop/Seed/Sammy Davis Jr. - The Sammy Davis Jr. All-Star Spectacular (2004) [FLAC]/04 Stranger In Paradise.flac
Pre-gap length : 00:03:23
Track gain : -4.58 dB
Peak : 0.898926
CRC32 hash (test run) : 4657B346
CRC32 hash : 4657B346
CRC32 hash (skip zero) : 56630A0D
AccurateRip v1 signature : 89E1912E
AccurateRip v2 signature : 9E88C87A
->Accurately ripped (v1+v2, confidence 1+1/2)
Statistics
Read error : 0
Jitter error (maybe fixed) : 0
Retry sector count : 1
Damaged sector count : 0
Track 05
Filename : /Users/Goodman/Desktop/Seed/Sammy Davis Jr. - The Sammy Davis Jr. All-Star Spectacular (2004) [FLAC]/05 Ballerina.flac
Pre-gap length : 00:02:61
Track gain : -4.96 dB
Peak : 0.889801
CRC32 hash (test run) : 23E4089E
CRC32 hash : 23E4089E
CRC32 hash (skip zero) : F445ACC4
AccurateRip v1 signature : 0B069E09
AccurateRip v2 signature : 8306DE5A
->Accurately ripped (v1+v2, confidence 1+1/2)
Statistics
Read error : 0
Jitter error (maybe fixed) : 0
Retry sector count : 0
Damaged sector count : 0
Track 06
Filename : /Users/Goodman/Desktop/Seed/Sammy Davis Jr. - The Sammy Davis Jr. All-Star Spectacular (2004) [FLAC]/06 Sonny Boy.flac
Pre-gap length : 00:03:50
Track gain : -2.99 dB
Peak : 0.881134
CRC32 hash (test run) : B7EFA129
CRC32 hash : B7EFA129
CRC32 hash (skip zero) : 3F92A95E
AccurateRip v1 signature : 9A1769F3
AccurateRip v2 signature : 68553950
->Accurately ripped (v1+v2, confidence 1+1/2)
Statistics
Read error : 0
Jitter error (maybe fixed) : 0
Retry sector count : 0
Damaged sector count : 0
Track 07
Filename : /Users/Goodman/Desktop/Seed/Sammy Davis Jr. - The Sammy Davis Jr. All-Star Spectacular (2004) [FLAC]/07 I Married An Angel.flac
Pre-gap length : 00:03:07
Track gain : -6.33 dB
Peak : 0.929016
CRC32 hash (test run) : 3CD6EAD9
CRC32 hash : 3CD6EAD9
CRC32 hash (skip zero) : 0DDF3B09
AccurateRip v1 signature : A2F70221
AccurateRip v2 signature : 074B7D01
->Accurately ripped (v1+v2, confidence 1+1/2)
Statistics
Read error : 0
Jitter error (maybe fixed) : 0
Retry sector count : 0
Damaged sector count : 0
Track 08
Filename : /Users/Goodman/Desktop/Seed/Sammy Davis Jr. - The Sammy Davis Jr. All-Star Spectacular (2004) [FLAC]/08 Falling In Love Again.flac
Pre-gap length : 00:03:62
Track gain : -5.85 dB
Peak : 0.954742
CRC32 hash (test run) : 3F004F14
CRC32 hash : 3F004F14
CRC32 hash (skip zero) : 986A2EAE
AccurateRip v1 signature : 9A52954E
AccurateRip v2 signature : 0557861C
->Accurately ripped (v1+v2, confidence 1+1/2)
Statistics
Read error : 0
Jitter error (maybe fixed) : 0
Retry sector count : 0
Damaged sector count : 0
Track 09
Filename : /Users/Goodman/Desktop/Seed/Sammy Davis Jr. - The Sammy Davis Jr. All-Star Spectacular (2004) [FLAC]/09 You Can't Love 'Em All.flac
Pre-gap length : 00:02:43
Track gain : -5.04 dB
Peak : 0.907654
CRC32 hash (test run) : 52677F48
CRC32 hash : 52677F48
CRC32 hash (skip zero) : 804175EA
AccurateRip v1 signature : B2518401
AccurateRip v2 signature : 015BCBDD
->Accurately ripped (v1+v2, confidence 1+1/2)
Statistics
Read error : 0
Jitter error (maybe fixed) : 0
Retry sector count : 0
Damaged sector count : 0
Track 10
Filename : /Users/Goodman/Desktop/Seed/Sammy Davis Jr. - The Sammy Davis Jr. All-Star Spectacular (2004) [FLAC]/10 If You Are But A Dream.flac
Pre-gap length : 00:02:44
Track gain : -5.69 dB
Peak : 0.886536
CRC32 hash (test run) : 8647E2AC
CRC32 hash : 8647E2AC
CRC32 hash (skip zero) : 6CD6B05C
AccurateRip v1 signature : 23BE3977
AccurateRip v2 signature : EA62740D
->Accurately ripped (v1+v2, confidence 1+1/2)
Statistics
Read error : 0
Jitter error (maybe fixed) : 0
Retry sector count : 0
Damaged sector count : 0
Track 11
Filename : /Users/Goodman/Desktop/Seed/Sammy Davis Jr. - The Sammy Davis Jr. All-Star Spectacular (2004) [FLAC]/11 'Deed I Do.flac
Pre-gap length : 00:02:13
Track gain : -6.83 dB
Peak : 0.923645
CRC32 hash (test run) : 075DB054
CRC32 hash : 075DB054
CRC32 hash (skip zero) : 626E1524
AccurateRip v1 signature : 44D0998F
AccurateRip v2 signature : 539B5FC9
->Accurately ripped (v1+v2, confidence 1+1/2)
Statistics
Read error : 0
Jitter error (maybe fixed) : 0
Retry sector count : 0
Damaged sector count : 0
Track 12
Filename : /Users/Goodman/Desktop/Seed/Sammy Davis Jr. - The Sammy Davis Jr. All-Star Spectacular (2004) [FLAC]/12 Without A Song.flac
Pre-gap length : 00:02:26
Track gain : -2.38 dB
Peak : 0.852783
CRC32 hash (test run) : 06D66E6C
CRC32 hash : 06D66E6C
CRC32 hash (skip zero) : EAB2E98D
AccurateRip v1 signature : AADB20EF
AccurateRip v2 signature : 3FC69002
->Accurately ripped (v1+v2, confidence 1+1/2)
Statistics
Read error : 0
Jitter error (maybe fixed) : 0
Retry sector count : 0
Damaged sector count : 0
No errors occurred
End of status report
-----BEGIN XLD SIGNATURE-----
fkjJD9iksiJS.s7EBZx0KSfYqASPYHwY8Wg5suA0.e0Wws.7RzJihP7vftu8xEd0.JVgeDQvaj7KmNztyccSSkMbNoW8XELb22Izj20
-----END XLD SIGNATURE-----
 
Содержание индексной карты (.CUE)
TITLE "The Sammy Davis Jr. All-Star Spectacular"
PERFORMER "Sammy Davis Jr."
REM GENRE "Jazz"
REM DATE "2004"
REM DISCID 9B09120C
REM REPLAYGAIN_ALBUM_GAIN -5.46 dB
REM REPLAYGAIN_ALBUM_PEAK 0.954834
FILE "01 That Lucky Old Sun.flac" WAVE
TRACK 01 AUDIO
TITLE "That Lucky Old Sun"
ISRC USRE10400335
REM REPLAYGAIN_TRACK_GAIN -5.96 dB
REM REPLAYGAIN_TRACK_PEAK 0.928528
INDEX 01 00:00:00
TRACK 02 AUDIO
TITLE "Be My Love"
ISRC USRE10400336
REM REPLAYGAIN_TRACK_GAIN -4.17 dB
REM REPLAYGAIN_TRACK_PEAK 0.939178
INDEX 00 05:24:10
FILE "02 Be My Love.flac" WAVE
INDEX 01 00:00:00
TRACK 03 AUDIO
TITLE "Lulu's Back In Town"
ISRC USRE10400337
REM REPLAYGAIN_TRACK_GAIN -6.91 dB
REM REPLAYGAIN_TRACK_PEAK 0.954834
INDEX 00 03:24:54
FILE "03 Lulu's Back In Town.flac" WAVE
INDEX 01 00:00:00
TRACK 04 AUDIO
TITLE "Stranger In Paradise"
ISRC USRE10400338
REM REPLAYGAIN_TRACK_GAIN -4.58 dB
REM REPLAYGAIN_TRACK_PEAK 0.898926
INDEX 00 02:54:40
FILE "04 Stranger In Paradise.flac" WAVE
INDEX 01 00:00:00
TRACK 05 AUDIO
TITLE "Ballerina"
ISRC USRE10400339
REM REPLAYGAIN_TRACK_GAIN -4.96 dB
REM REPLAYGAIN_TRACK_PEAK 0.889801
INDEX 00 02:37:35
FILE "05 Ballerina.flac" WAVE
INDEX 01 00:00:00
TRACK 06 AUDIO
TITLE "Sonny Boy"
ISRC USRE10400340
REM REPLAYGAIN_TRACK_GAIN -2.99 dB
REM REPLAYGAIN_TRACK_PEAK 0.881134
INDEX 00 02:53:66
FILE "06 Sonny Boy.flac" WAVE
INDEX 01 00:00:00
TRACK 07 AUDIO
TITLE "I Married An Angel"
ISRC USRE10400341
REM REPLAYGAIN_TRACK_GAIN -6.33 dB
REM REPLAYGAIN_TRACK_PEAK 0.929016
INDEX 00 03:58:33
FILE "07 I Married An Angel.flac" WAVE
INDEX 01 00:00:00
TRACK 08 AUDIO
TITLE "Falling In Love Again"
ISRC USRE10400342
REM REPLAYGAIN_TRACK_GAIN -5.85 dB
REM REPLAYGAIN_TRACK_PEAK 0.954742
INDEX 00 01:58:28
FILE "08 Falling In Love Again.flac" WAVE
INDEX 01 00:00:00
TRACK 09 AUDIO
TITLE "You Can't Love 'Em All"
ISRC USRE10400343
REM REPLAYGAIN_TRACK_GAIN -5.04 dB
REM REPLAYGAIN_TRACK_PEAK 0.907654
INDEX 00 03:26:00
FILE "09 You Can't Love 'Em All.flac" WAVE
INDEX 01 00:00:00
TRACK 10 AUDIO
TITLE "If You Are But A Dream"
ISRC USRE10400344
REM REPLAYGAIN_TRACK_GAIN -5.69 dB
REM REPLAYGAIN_TRACK_PEAK 0.886536
INDEX 00 03:07:52
FILE "10 If You Are But A Dream.flac" WAVE
INDEX 01 00:00:00
TRACK 11 AUDIO
TITLE "'Deed I Do"
ISRC USRE10400345
REM REPLAYGAIN_TRACK_GAIN -6.83 dB
REM REPLAYGAIN_TRACK_PEAK 0.923645
INDEX 00 02:32:55
FILE "11 'Deed I Do.flac" WAVE
INDEX 01 00:00:00
TRACK 12 AUDIO
TITLE "Without A Song"
ISRC USRE10400346
REM REPLAYGAIN_TRACK_GAIN -2.38 dB
REM REPLAYGAIN_TRACK_PEAK 0.852783
INDEX 00 02:11:58
FILE "12 Without A Song.flac" WAVE
INDEX 01 00:00:00
 
AccurateRip
CUE Corrector v. 8.3.4 / b. 859 (Jun. 01, 2018)
Sammy Davis Jr. / The Sammy Davis Jr. All-Star Spectacular
AccurateRip ID [00125b86-00a713f7-9b09120c] found.
Get file: http://www.accuraterip.com/accuraterip/6/8/b/dBAR-012-00125b86-00a713f7-9b09120c.bin
AccurateRip summary:
Track 1 accurately ripped (confidence 2) [748F919F] (AR v2)
Track 2 accurately ripped (confidence 2) [11339E01] (AR v2)
Track 3 accurately ripped (confidence 2) [CE71B837] (AR v2)
Track 4 accurately ripped (confidence 2) [9E88C87A] (AR v2)
Track 5 accurately ripped (confidence 2) [8306DE5A] (AR v2)
Track 6 accurately ripped (confidence 2) [68553950] (AR v2)
Track 7 accurately ripped (confidence 2) [074B7D01] (AR v2)
Track 8 accurately ripped (confidence 2) [0557861C] (AR v2)
Track 9 accurately ripped (confidence 2) [015BCBDD] (AR v2)
Track 10 accurately ripped (confidence 2) [EA62740D] (AR v2)
Track 11 accurately ripped (confidence 2) [539B5FC9] (AR v2)
Track 12 accurately ripped (confidence 2) [3FC69002] (AR v2)
All tracks accurately ripped
Track Peak [ CRC32 ] [W/O NULL] [ LOG ] [ ARv1 ] [ ARv2 ]
-- 95.4 [50D038AE] [EB556F2A]
01 92.8 [AA191D76] [C909D13A] [D9032A03] [748F919F]
02 93.9 [8C86CA5C] [10D66FC6] [E43016C2] [11339E01]
03 95.4 [FD94D2C7] [F4FC87B4] [13110988] [CE71B837]
04 89.8 [4657B346] [56630A0D] [89E1912E] [9E88C87A]
05 88.9 [23E4089E] [F445ACC4] [0B069E09] [8306DE5A]
06 88.1 [B7EFA129] [3F92A95E] [9A1769F3] [68553950]
07 92.9 [3CD6EAD9] [0DDF3B09] [A2F70221] [074B7D01]
08 95.4 [3F004F14] [986A2EAE] [9A52954E] [0557861C]
09 90.7 [52677F48] [804175EA] [B2518401] [015BCBDD]
10 88.6 [8647E2AC] [6CD6B05C] [23BE3977] [EA62740D]
11 92.3 [075DB054] [626E1524] [44D0998F] [539B5FC9]
12 85.2 [06D66E6C] [EAB2E98D] [AADB20EF] [3FC69002]
Log created at June 03, 2018 22:01:54
Time elapsed: 7.630 s
=== 694DB8ACD538411B8008B86ED99B0AAF3D29446C02105F6A656D84BF746A7324 ===
 
Скриншот спектра частот
 
auCDtect
CUE Corrector v. 8.3.4 / b. 859 (Jun. 01, 2018)
————————————————————————————————————————————————————————————————————————
Sammy Davis Jr. / The Sammy Davis Jr. All-Star Spectacular
CUE file: The Sammy Davis Jr. All-Star Spectacular.cue
Audio files:
01 That Lucky Old Sun.flac [05:27.387; FLAC • 820 kbps • 16 bit \ 44100 Hz • stereo; 32.02 MB (33 570 501 B)]
02 Be My Love.flac [03:28.280; FLAC • 827 kbps • 16 bit \ 44100 Hz • stereo; 20.54 MB (21 532 614 B)]
03 Lulu's Back In Town.flac [02:57.840; FLAC • 873 kbps • 16 bit \ 44100 Hz • stereo; 18.52 MB (19 416 398 B)]
04 Stranger In Paradise.flac [02:40.280; FLAC • 815 kbps • 16 bit \ 44100 Hz • stereo; 15.59 MB (16 347 995 B)]
05 Ballerina.flac [02:57.547; FLAC • 875 kbps • 16 bit \ 44100 Hz • stereo; 18.54 MB (19 435 852 B)]
06 Sonny Boy.flac [04:01.533; FLAC • 775 kbps • 16 bit \ 44100 Hz • stereo; 22.32 MB (23 407 295 B)]
07 I Married An Angel.flac [02:02.200; FLAC • 939 kbps • 16 bit \ 44100 Hz • stereo; 13.68 MB (14 345 766 B)]
08 Falling In Love Again.flac [03:28.573; FLAC • 890 kbps • 16 bit \ 44100 Hz • stereo; 22.15 MB (23 227 156 B)]
09 You Can't Love 'Em All.flac [03:10.280; FLAC • 883 kbps • 16 bit \ 44100 Hz • stereo; 20.04 MB (21 018 694 B)]
10 If You Are But A Dream.flac [02:34.907; FLAC • 929 kbps • 16 bit \ 44100 Hz • stereo; 17.16 MB (17 996 528 B)]
11 'Deed I Do.flac [02:14.120; FLAC • 919 kbps • 16 bit \ 44100 Hz • stereo; 14.71 MB (15 420 430 B)]
12 Without A Song.flac [03:39.147; FLAC • 837 kbps • 16 bit \ 44100 Hz • stereo; 21.87 MB (22 933 479 B)]
Accuracy: -m0
Track 01 - That Lucky Old Sun - 100% CDDA [05:27:29]
Track 02 - Be My Love - 100% CDDA [03:28:21]
Track 03 - Lulu's Back In Town - 100% CDDA [02:57:63]
Track 04 - Stranger In Paradise - 100% CDDA [02:40:21]
Track 05 - Ballerina - 100% CDDA [02:57:41]
Track 06 - Sonny Boy - 100% CDDA [04:01:40]
Track 07 - I Married An Angel - 100% CDDA [02:02:15]
Track 08 - Falling In Love Again - 100% CDDA [03:28:43]
Track 09 - You Can't Love 'Em All - 100% CDDA [03:10:21]
Track 10 - If You Are But A Dream - 100% CDDA [02:34:68]
Track 11 - 'Deed I Do - 100% CDDA [02:14:09]
Track 12 - Without A Song - 100% CDDA [03:39:11]
————— Summary: —————
These tracks looks like CDDA with probability 100%.
————————————————————————————————————————————————————————————————————————
ANALYZER:
auCDtect: CD records authenticity detector, version 0.8.2
Copyright (c) 2004 Oleg Berngardt. All rights reserved.
Copyright (c) 2004 Alexander Djourik. All rights reserved.
Time elapsed: 1 m 46 s
Log created at June 03, 2018 22:04:29
=== 15D8EE9651DBE157E8AD9FD6FC889E9D9917DB6BD9F0069921362913B106097B ===
Скачивание доступно после регистрации!!
Приватный:
Нет (DHT включён)
Размер:
237.15 Мб (248,666,840 байт) » файлов: 14
Участники:
0 раздают, 0 качают (0 участников всего)
Внешние участники:
5 раздают, 1 качают (6 участников всего) [ Обновить ]
07:32
7
Нет комментариев. Ваш будет первым!