Поиск

(Vocal Jazz) [CD] Billie Holiday - Lady Sings The Blues - (1956) 2007, FLAC (tracks+.cue), lossless

(Vocal Jazz) [CD] Billie Holiday - Lady Sings The Blues - (1956) 2007, FLAC (tracks+.cue), lossless
Треклист:
Billie Holiday - Lady Sings The Blues
Жанр: Vocal Jazz
Носитель: CD
Страна-производитель диска (релиза): USA
Год издания: (1956) 2007
Издатель (лейбл): Verve
Номер по каталогу: B0009401-02
Страна исполнителя (группы): USA
Аудиокодек: FLAC (*.flac)
Тип рипа: tracks+.cue
Битрейт аудио: lossless
Продолжительность: 00:38:22
Источник (релизер): A10FootSquirrel (Redacted)
Наличие сканов: Под "спойлером" (не лучшего качества)
Треклист:
01. Lady Sings the Blues [3:46]
02. Trav'lin' Light [3:11]
03. I Must Have That Man [3:05]
04. Some Other Spring [3:38]
05. Strange Fruit [3:04]
06. No Good Man [3:19]
07. God Bless the Child [4:01]
08. Good Morning Heartache [3:31]
09. Love Me or Leave Me [2:37]
10. Too Marvelous for Words [2:15]
11. Willow Weep for Me [3:09]
12. I Thought About You [2:46]
 
Обложка
 
Лог создания рипа
Exact Audio Copy V1.0 beta 3 from 29. August 2011
EAC extraction logfile from 19. November 2013, 21:50
Holiday, Billie / Lady Sings the Blues
Used drive : ASUS DRW-24B1ST c Adapter: 2 ID: 0
Read mode : Secure
Utilize accurate stream : Yes
Defeat audio cache : Yes
Make use of C2 pointers : No
Read offset correction : 6
Overread into Lead-In and Lead-Out : No
Fill up missing offset samples with silence : Yes
Delete leading and trailing silent blocks : No
Null samples used in CRC calculations : Yes
Used interface : Native Win32 interface for Win NT & 2000
Gap handling : Appended to previous track
Used output format : User Defined Encoder
Selected bitrate : 896 kBit/s
Quality : High
Add ID3 tag : No
Command line compressor : C:\Program Files (x86)\Exact Audio Copy\FLAC\FLAC.EXE
Additional command line options : -6 -V -T "ARTIST=%artist%" -T "TITLE=%title%" -T "ALBUM=%albumtitle%" -T "DATE=%year%" -T "TRACKNUMBER=%tracknr%" -T "GENRE=%genre%" -T "COMMENT=%comment%" -T "BAND=%albuminterpret%" -T "ALBUMARTIST=%albuminterpret%" -T "COMPOSER=%composer%" %haslyrics%--tag-from-file=LYRICS="%lyricsfile%"%haslyrics% -T "DISCNUMBER=%cdnumber%" -T "TOTALDISCS=%totalcds%" -T "TOTALTRACKS=%numtracks%" %hascover%--picture="%coverfile%"%hascover% %source% -o %dest%
TOC of the extracted CD
Track | Start | Length | Start sector | End sector
---------------------------------------------------------
1 | 0:00.00 | 3:46.01 | 0 | 16950
2 | 3:46.01 | 3:10.50 | 16951 | 31250
3 | 6:56.51 | 3:05.30 | 31251 | 45155
4 | 10:02.06 | 3:38.02 | 45156 | 61507
5 | 13:40.08 | 3:04.35 | 61508 | 75342
6 | 16:44.43 | 3:19.35 | 75343 | 90302
7 | 20:04.03 | 4:00.44 | 90303 | 108346
8 | 24:04.47 | 3:30.46 | 108347 | 124142
9 | 27:35.18 | 2:36.60 | 124143 | 135902
10 | 30:12.03 | 2:14.39 | 135903 | 145991
11 | 32:26.42 | 3:09.01 | 145992 | 160167
12 | 35:35.43 | 2:46.04 | 160168 | 172621
Track 1
Filename C:\EAC Saves\Lady Sings the Blues\01 - Lady Sings the Blues.wav
Pre-gap length 0:00:02.00
Peak level 79.1 %
Extraction speed 5.7 X
Track quality 100.0 %
Test CRC 1D46239A
Copy CRC 1D46239A
Accurately ripped (confidence 9) [4B58F5BA] (AR v2)
Copy OK
Track 2
Filename C:\EAC Saves\Lady Sings the Blues\02 - Trav'lin' Light.wav
Pre-gap length 0:00:01.73
Peak level 66.9 %
Extraction speed 6.0 X
Track quality 100.0 %
Test CRC 7F372D7D
Copy CRC 7F372D7D
Accurately ripped (confidence 9) [7FF458D4] (AR v2)
Copy OK
Track 3
Filename C:\EAC Saves\Lady Sings the Blues\03 - I Must Have That Man.wav
Pre-gap length 0:00:02.64
Peak level 79.2 %
Extraction speed 6.4 X
Track quality 100.0 %
Test CRC 45D39122
Copy CRC 45D39122
Accurately ripped (confidence 9) [AEF65CB1] (AR v2)
Copy OK
Track 4
Filename C:\EAC Saves\Lady Sings the Blues\04 - Some Other Spring.wav
Pre-gap length 0:00:02.25
Peak level 73.6 %
Extraction speed 6.8 X
Track quality 100.0 %
Test CRC D7B539BE
Copy CRC D7B539BE
Accurately ripped (confidence 9) [4604BE1E] (AR v2)
Copy OK
Track 5
Filename C:\EAC Saves\Lady Sings the Blues\05 - Strange Fruit.wav
Pre-gap length 0:00:02.24
Peak level 61.4 %
Extraction speed 6.7 X
Track quality 100.0 %
Test CRC 899C71E2
Copy CRC 899C71E2
Accurately ripped (confidence 9) [3468FEA5] (AR v2)
Copy OK
Track 6
Filename C:\EAC Saves\Lady Sings the Blues\06 - No Good Man.wav
Pre-gap length 0:00:01.71
Peak level 80.4 %
Extraction speed 7.5 X
Track quality 100.0 %
Test CRC 9206713E
Copy CRC 9206713E
Accurately ripped (confidence 9) [4B7E23E0] (AR v2)
Copy OK
Track 7
Filename C:\EAC Saves\Lady Sings the Blues\07 - God Bless the Child.wav
Pre-gap length 0:00:02.07
Peak level 85.4 %
Extraction speed 8.0 X
Track quality 100.0 %
Test CRC 20D3FAF9
Copy CRC 20D3FAF9
Accurately ripped (confidence 9) [5ECB7DE3] (AR v2)
Copy OK
Track 8
Filename C:\EAC Saves\Lady Sings the Blues\08 - Good Morning Heartache.wav
Pre-gap length 0:00:02.35
Peak level 93.3 %
Extraction speed 8.3 X
Track quality 100.0 %
Test CRC F1944B2C
Copy CRC F1944B2C
Accurately ripped (confidence 9) [8718E21F] (AR v2)
Copy OK
Track 9
Filename C:\EAC Saves\Lady Sings the Blues\09 - Love Me or Leave Me.wav
Pre-gap length 0:00:02.32
Peak level 90.9 %
Extraction speed 8.1 X
Track quality 100.0 %
Test CRC 3C260273
Copy CRC 3C260273
Accurately ripped (confidence 9) [7A848215] (AR v2)
Copy OK
Track 10
Filename C:\EAC Saves\Lady Sings the Blues\10 - Too Marvelous for Words.wav
Pre-gap length 0:00:01.71
Peak level 92.2 %
Extraction speed 7.9 X
Track quality 100.0 %
Test CRC 7BC32F50
Copy CRC 7BC32F50
Accurately ripped (confidence 9) [BFF3DE41] (AR v2)
Copy OK
Track 11
Filename C:\EAC Saves\Lady Sings the Blues\11 - Willow Weep for Me.wav
Pre-gap length 0:00:02.27
Peak level 89.7 %
Extraction speed 8.7 X
Track quality 100.0 %
Test CRC F4D232BE
Copy CRC F4D232BE
Accurately ripped (confidence 9) [DA49AF6A] (AR v2)
Copy OK
Track 12
Filename C:\EAC Saves\Lady Sings the Blues\12 - I Thought About You.wav
Pre-gap length 0:00:02.34
Peak level 87.3 %
Extraction speed 8.9 X
Track quality 100.0 %
Test CRC 9A3F8A42
Copy CRC 9A3F8A42
Accurately ripped (confidence 9) [0FEA25C7] (AR v2)
Copy OK
All tracks accurately ripped
No errors occurred
End of status report
==== Log checksum 1A0547002A874767FC9AFC9129F6DB05A172F38F3EF2AFE74E7A73BAC311252E ====
 
Содержание индексной карты (.CUE)
REM GENRE Jazz
REM DATE 1956
REM DISCID 9408FD0C
REM COMMENT "ExactAudioCopy v1.0b3"
CATALOG 0602517396883
PERFORMER "Holiday, Billie"
TITLE "Lady Sings the Blues"
FILE "01 - Lady Sings the Blues.wav" WAVE
TRACK 01 AUDIO
TITLE "Lady Sings the Blues"
PERFORMER "Holiday, Billie"
ISRC USPR35600083
INDEX 01 00:00:00
TRACK 02 AUDIO
TITLE "Trav'lin' Light"
PERFORMER "Holiday, Billie"
ISRC USPR35602455
INDEX 00 03:44:03
FILE "02 - Trav'lin' Light.wav" WAVE
INDEX 01 00:00:00
TRACK 03 AUDIO
TITLE "I Must Have That Man"
PERFORMER "Holiday, Billie"
ISRC USF095625400
INDEX 00 03:07:61
FILE "03 - I Must Have That Man.wav" WAVE
INDEX 01 00:00:00
TRACK 04 AUDIO
TITLE "Some Other Spring"
PERFORMER "Holiday, Billie"
ISRC USF095625410
INDEX 00 03:03:05
FILE "04 - Some Other Spring.wav" WAVE
INDEX 01 00:00:00
TRACK 05 AUDIO
TITLE "Strange Fruit"
PERFORMER "Holiday, Billie"
ISRC USPR35602457
INDEX 00 03:35:53
FILE "05 - Strange Fruit.wav" WAVE
INDEX 01 00:00:00
TRACK 06 AUDIO
TITLE "No Good Man"
PERFORMER "Holiday, Billie"
ISRC USPR35602458
INDEX 00 03:02:39
FILE "06 - No Good Man.wav" WAVE
INDEX 01 00:00:00
TRACK 07 AUDIO
TITLE "God Bless the Child"
PERFORMER "Holiday, Billie"
ISRC USPR35600064
INDEX 00 03:17:28
FILE "07 - God Bless the Child.wav" WAVE
INDEX 01 00:00:00
TRACK 08 AUDIO
TITLE "Good Morning Heartache"
PERFORMER "Holiday, Billie"
ISRC USPR35600067
INDEX 00 03:58:09
FILE "08 - Good Morning Heartache.wav" WAVE
INDEX 01 00:00:00
TRACK 09 AUDIO
TITLE "Love Me or Leave Me"
PERFORMER "Holiday, Billie"
ISRC USPR35400038
INDEX 00 03:28:14
FILE "09 - Love Me or Leave Me.wav" WAVE
INDEX 01 00:00:00
TRACK 10 AUDIO
TITLE "Too Marvelous for Words"
PERFORMER "Holiday, Billie"
ISRC USPR35400040
INDEX 00 02:34:64
FILE "10 - Too Marvelous for Words.wav" WAVE
INDEX 01 00:00:00
TRACK 11 AUDIO
TITLE "Willow Weep for Me"
PERFORMER "Holiday, Billie"
ISRC USPR35400043
INDEX 00 02:12:12
FILE "11 - Willow Weep for Me.wav" WAVE
INDEX 01 00:00:00
TRACK 12 AUDIO
TITLE "I Thought About You"
PERFORMER "Holiday, Billie"
ISRC USF095425100
INDEX 00 03:06:42
FILE "12 - I Thought About You.wav" WAVE
INDEX 01 00:00:00
 
Лог проверки качества
CUE Corrector v. 8.3.4 / b. 859 (Jun. 01, 2018)
Holiday, Billie / Lady Sings the Blues
AccurateRip ID [0011d147-00a50682-9408fd0c] found.
Get file: http://www.accuraterip.com/accuraterip/7/4/1/dBAR-012-0011d147-00a50682-9408fd0c.bin
AccurateRip summary:
Track 1 accurately ripped (confidence 9) [498F768B] (AR v1)
Track 2 accurately ripped (confidence 9) [C982E469] (AR v1)
Track 3 accurately ripped (confidence 9) [D691B64E] (AR v1)
Track 4 accurately ripped (confidence 9) [F84D4954] (AR v1)
Track 5 accurately ripped (confidence 9) [172FF78C] (AR v1)
Track 6 accurately ripped (confidence 8) [710A8334] (AR v1)
Track 7 accurately ripped (confidence 8) [20473972] (AR v1)
Track 8 accurately ripped (confidence 9) [5BA49912] (AR v1)
Track 9 accurately ripped (confidence 9) [20140C98] (AR v1)
Track 10 accurately ripped (confidence 9) [55F6338C] (AR v1)
Track 11 accurately ripped (confidence 9) [74024FA0] (AR v1)
Track 12 accurately ripped (confidence 8) [B99F1EC4] (AR v1)
All tracks accurately ripped
——————————————————————————————————————————————————
Track 1 accurately ripped (confidence 22) [4B58F5BA] (AR v2)
Track 2 accurately ripped (confidence 22) [7FF458D4] (AR v2)
Track 3 accurately ripped (confidence 22) [AEF65CB1] (AR v2)
Track 4 accurately ripped (confidence 22) [4604BE1E] (AR v2)
Track 5 accurately ripped (confidence 22) [3468FEA5] (AR v2)
Track 6 accurately ripped (confidence 22) [4B7E23E0] (AR v2)
Track 7 accurately ripped (confidence 22) [5ECB7DE3] (AR v2)
Track 8 accurately ripped (confidence 22) [8718E21F] (AR v2)
Track 9 accurately ripped (confidence 22) [7A848215] (AR v2)
Track 10 accurately ripped (confidence 22) [BFF3DE41] (AR v2)
Track 11 accurately ripped (confidence 22) [DA49AF6A] (AR v2)
Track 12 accurately ripped (confidence 22) [0FEA25C7] (AR v2)
All tracks accurately ripped
Track Peak [ CRC32 ] [W/O NULL] [ LOG ] [ ARv1 ] [ ARv2 ]
-- 93.3 [82E0170D] [2DB77BF7]
01 79.1 [1D46239A] [5A1285E9] [498F768B] [4B58F5BA]
02 66.9 [7F372D7D] [F0957DE9] [C982E469] [7FF458D4]
03 79.2 [45D39122] [D1DA23B6] [D691B64E] [AEF65CB1]
04 73.6 [D7B539BE] [6EFA6C53] [F84D4954] [4604BE1E]
05 61.4 [899C71E2] [0C9B0909] [172FF78C] [3468FEA5]
06 80.4 [9206713E] [D082CE95] [710A8334] [4B7E23E0]
07 85.4 [20D3FAF9] [C220E084] [20473972] [5ECB7DE3]
08 93.3 [F1944B2C] [D43BB5A8] [5BA49912] [8718E21F]
09 90.9 [3C260273] [AE4C41CD] [20140C98] [7A848215]
10 92.2 [7BC32F50] [8C334402] [55F6338C] [BFF3DE41]
11 89.7 [F4D232BE] [7FFEDE10] [74024FA0] [DA49AF6A]
12 87.3 [9A3F8A42] [E5397907] [B99F1EC4] [0FEA25C7]
Log created at June 05, 2018 22:27:04
Time elapsed: 6.808 s
=== 1D8F5926E7161BD6C3406A40138A582A2785B74B7DC284B52276B58A2D70FFC1 ===
 
auCDtect
CUE Corrector v. 8.3.4 / b. 859 (Jun. 01, 2018)
————————————————————————————————————————————————————————————————————————
Holiday, Billie / Lady Sings the Blues
CUE file: Lady Sings the Blues.flac.cue
Audio files:
01 - Lady Sings the Blues.flac [03:46.013; FLAC • 446 kbps • 16 bit \ 44100 Hz • stereo; 12.04 MB (12 624 768 B)]
02 - Trav'lin' Light.flac [03:10.667; FLAC • 445 kbps • 16 bit \ 44100 Hz • stereo; 10.13 MB (10 626 167 B)]
03 - I Must Have That Man.flac [03:05.400; FLAC • 460 kbps • 16 bit \ 44100 Hz • stereo; 10.18 MB (10 679 231 B)]
04 - Some Other Spring.flac [03:38.027; FLAC • 446 kbps • 16 bit \ 44100 Hz • stereo; 11.60 MB (12 160 259 B)]
05 - Strange Fruit.flac [03:04.467; FLAC • 423 kbps • 16 bit \ 44100 Hz • stereo; 9.31 MB (9 766 162 B)]
06 - No Good Man.flac [03:19.467; FLAC • 654 kbps • 16 bit \ 44100 Hz • stereo; 15.57 MB (16 324 399 B)]
07 - God Bless the Child.flac [04:00.587; FLAC • 444 kbps • 16 bit \ 44100 Hz • stereo; 12.74 MB (13 359 451 B)]
08 - Good Morning Heartache.flac [03:30.613; FLAC • 435 kbps • 16 bit \ 44100 Hz • stereo; 10.93 MB (11 459 894 B)]
09 - Love Me or Leave Me.flac [02:36.800; FLAC • 469 kbps • 16 bit \ 44100 Hz • stereo; 8.77 MB (9 198 771 B)]
10 - Too Marvelous for Words.flac [02:14.520; FLAC • 497 kbps • 16 bit \ 44100 Hz • stereo; 7.97 MB (8 361 102 B)]
11 - Willow Weep for Me.flac [03:09.013; FLAC • 452 kbps • 16 bit \ 44100 Hz • stereo; 10.20 MB (10 696 157 B)]
12 - I Thought About You.flac [02:46.053; FLAC • 421 kbps • 16 bit \ 44100 Hz • stereo; 8.34 MB (8 740 067 B)]
Accuracy: -m0
Track 01 - Lady Sings the Blues - 99% CDDA [03:46:01]
Track 02 - Trav'lin' Light - 99% CDDA [03:10:50]
Track 03 - I Must Have That Man - 100% CDDA [03:05:30]
Track 04 - Some Other Spring - 100% CDDA [03:38:02]
Track 05 - Strange Fruit - 100% CDDA [03:04:35]
Track 06 - No Good Man - 100% CDDA [03:19:35]
Track 07 - God Bless the Child - 100% CDDA [04:00:44]
Track 08 - Good Morning Heartache - 100% CDDA [03:30:46]
Track 09 - Love Me or Leave Me - 99% CDDA [02:36:60]
Track 10 - Too Marvelous for Words - 100% CDDA [02:14:39]
Track 11 - Willow Weep for Me - 100% CDDA [03:09:01]
Track 12 - I Thought About You - 100% CDDA [02:46:04]
————— Summary: —————
These tracks looks like CDDA with probability 100%.
————————————————————————————————————————————————————————————————————————
ANALYZER:
auCDtect: CD records authenticity detector, version 0.8.2
Copyright (c) 2004 Oleg Berngardt. All rights reserved.
Copyright (c) 2004 Alexander Djourik. All rights reserved.
Time elapsed: 1 m 45 s
Log created at June 05, 2018 22:34:40
=== 19E1A7076FC02605C429254DB83845F3B24AF17F9878BEC94E0F0D9FF1ED354A ===
 
Скриншот спектра частот
Скачивание доступно после регистрации!!
Приватный:
Нет (DHT включён)
Размер:
127.80 Мб (134,012,991 байт) » файлов: 15
Участники:
0 раздают, 0 качают (0 участников всего)
Внешние участники:
--- [ Обновить ]
07:31
11
Нет комментариев. Ваш будет первым!