Поиск

(Vocal Jazz) [CD] Gregory Porter - Nat “King” Cole & Me - 2017, FLAC (tracks+.cue), lossless

(Vocal Jazz) [CD] Gregory Porter - Nat “King” Cole & Me - 2017, FLAC (tracks+.cue), lossless
Треклист:
Gregory Porter - Nat “King” Cole & Me Жанр: Vocal Jazz
Носитель: CD
Год издания: 2017
Издатель (лейбл): Blue Note
Номер по каталогу: 5791468
Аудиокодек: FLAC (*.flac)
Тип рипа: tracks+.cue
Битрейт аудио: lossless
Продолжительность: 49:41
Rip by jlgt
Наличие сканов в содержимом раздачи: да
Треклист:
01. Mona Lisa (4:21)
02. Smile (4:19)
03. Nature Boy (3:47)
04. L-O-V-E (2:10)
05. Quizas, Quizas, Quizas (4:31)
06. Miss Otis Regrets (4:32)
07. Pick Yourself Up (3:13)
08. When Love Was King (7:47)
09. The Lonely One (4:35)
10. Ballerina (2:51)
11. I Wonder Who My Daddy Is (3:49)
12. The Christmas Song (3:45)
 
 
AllMusic Review by Matt Collar
On his fifth studio album, 2017's lovingly produced Nat "King" Cole & Me, singer Gregory Porter takes a purposefully traditional approach, paying tribute to one of his biggest influences, legendary vocal icon Nat King Cole. To help craft his tribute, Porter recorded the album with Grammy Award-winning arranger Vince Mendoza and the illustrious London Studio Orchestra, as well as several tracks featuring Los Angeles studio stalwarts. Also on board are Porter's longtime bandmates, pianist Christian Sands, bassist Reuben Rogers, and drummer Ulysses Owens. While primarily known for his contemporary, genre-crossing style of jazz and R&B, Porter here leans nicely into a distinctly old-school sound. Mendoza frames the singer's warm, supple voice with shimmering orchestral arrangements that wouldn't be out of place during the golden age of '50s and early-'60s traditional pop. While never mimicking Cole's distinctive style, Porter manages to straddle the line between evincing the storied artist's burnished vocal sound, and displaying his own virtuoso talents. Tracks like the Cole songbook regulars "Nature Boy," "Mona Lisa," and "The Christmas Song" are lushly arranged renditions that envelop the listener. Also engaging are the upbeat swingers like "Ballerina" and "L-O-V-E," which features a guest solo appearance from trumpeter Terence Blanchard. There's also a cinematic quality to many of the cuts, as on "Miss Otis Regrets," in which Mendoza's dramatic, classical-tinged opening quickly settles into an intimate, candlelit reading of the melancholy classic. Porter even applies his vintage-influenced approach to a reworking of his original "When Love Was King." Romantic, sophisticated, and rich with vocal prowess, Nat "King" Cole & Me lives up to both Cole and Porter's own immense creative reputations.

 
Лог создания рипа
Exact Audio Copy V1.3 from 2. September 2016
EAC extraction logfile from 7. January 2018, 18:15
Gregory Porter / Nat ''King'' Cole & Me
Used drive : ASUS DRW-24F1ST a Adapter: 1 ID: 0
Read mode : Secure
Utilize accurate stream : Yes
Defeat audio cache : Yes
Make use of C2 pointers : No
Read offset correction : 6
Overread into Lead-In and Lead-Out : No
Fill up missing offset samples with silence : Yes
Delete leading and trailing silent blocks : No
Null samples used in CRC calculations : Yes
Used interface : Native Win32 interface for Win NT & 2000
Gap handling : Appended to previous track
Used output format : User Defined Encoder
Selected bitrate : 128 kBit/s
Quality : High
Add ID3 tag : No
Command line compressor : C:\Program Files (x86)\Exact Audio Copy\FLAC\FLAC.EXE
Additional command line options : -8 -V -T "ARTIST=%artist%" -T "TITLE=%title%" -T "ALBUM=%albumtitle%" -T "DATE=%year%" -T "TRACKNUMBER=%tracknr%" -T "TOTALTRACKS=%numtracks%" -T "GENRE=%genre%" -T "ALBUMARTIST=%albumartist%" -T "ALBUM ARTIST=%albumartist%" -T "COMMENT=EAC Secure Mode, Test & Copy, AccurateRip, FLAC -8" %source%
TOC of the extracted CD
Track | Start | Length | Start sector | End sector
---------------------------------------------------------
1 | 0:00.00 | 4:20.44 | 0 | 19543
2 | 4:20.44 | 4:18.64 | 19544 | 38957
3 | 8:39.33 | 3:46.55 | 38958 | 55962
4 | 12:26.13 | 2:09.66 | 55963 | 65703
5 | 14:36.04 | 4:31.31 | 65704 | 86059
6 | 19:07.35 | 4:32.37 | 86060 | 106496
7 | 23:39.72 | 3:12.67 | 106497 | 120963
8 | 26:52.64 | 7:46.53 | 120964 | 155966
9 | 34:39.42 | 4:35.19 | 155967 | 176610
10 | 39:14.61 | 2:51.25 | 176611 | 189460
11 | 42:06.11 | 3:49.19 | 189461 | 206654
12 | 45:55.30 | 3:45.16 | 206655 | 223545
Track 1
Filename L:\EAC\01 - Mona Lisa.wav
Pre-gap length 0:00:02.00
Peak level 98.8 %
Extraction speed 1.5 X
Track quality 99.9 %
Test CRC 2288E050
Copy CRC 2288E050
Accurately ripped (confidence 19) [A4864DAB] (AR v2)
Copy OK
Track 2
Filename L:\EAC\02 - Smile.wav
Peak level 98.8 %
Extraction speed 1.9 X
Track quality 100.0 %
Test CRC D4C9BC7F
Copy CRC D4C9BC7F
Accurately ripped (confidence 18) [8F49800A] (AR v2)
Copy OK
Track 3
Filename L:\EAC\03 - Nature Boy.wav
Peak level 76.7 %
Extraction speed 1.8 X
Track quality 99.9 %
Test CRC 3EBDD826
Copy CRC 3EBDD826
Accurately ripped (confidence 19) [7F8CA303] (AR v2)
Copy OK
Track 4
Filename L:\EAC\04 - L-O-V-E.wav
Peak level 98.8 %
Extraction speed 1.9 X
Track quality 100.0 %
Test CRC E2337ACE
Copy CRC E2337ACE
Accurately ripped (confidence 18) [61F388F1] (AR v2)
Copy OK
Track 5
Filename L:\EAC\05 - Quizas, Quizas, Quizas.wav
Peak level 98.8 %
Extraction speed 2.4 X
Track quality 100.0 %
Test CRC DD661583
Copy CRC DD661583
Accurately ripped (confidence 18) [07D5D86B] (AR v2)
Copy OK
Track 6
Filename L:\EAC\06 - Miss Otis Regrets.wav
Peak level 98.8 %
Extraction speed 2.5 X
Track quality 100.0 %
Test CRC 1D7AE334
Copy CRC 1D7AE334
Accurately ripped (confidence 18) [17AC9B08] (AR v2)
Copy OK
Track 7
Filename L:\EAC\07 - Pick Yourself Up.wav
Peak level 98.8 %
Extraction speed 2.2 X
Track quality 99.9 %
Test CRC CD7451A4
Copy CRC CD7451A4
Accurately ripped (confidence 18) [9FFD1DF0] (AR v2)
Copy OK
Track 8
Filename L:\EAC\08 - When Love Was King.wav
Peak level 98.8 %
Extraction speed 2.9 X
Track quality 100.0 %
Test CRC 8C7D5106
Copy CRC 8C7D5106
Accurately ripped (confidence 18) [037AF7FA] (AR v2)
Copy OK
Track 9
Filename L:\EAC\09 - The Lonely One.wav
Peak level 81.0 %
Extraction speed 2.9 X
Track quality 100.0 %
Test CRC 797217F6
Copy CRC 797217F6
Accurately ripped (confidence 18) [68BC1F6A] (AR v2)
Copy OK
Track 10
Filename L:\EAC\10 - Ballerina.wav
Peak level 98.8 %
Extraction speed 2.4 X
Track quality 99.9 %
Test CRC A622CBE5
Copy CRC A622CBE5
Accurately ripped (confidence 18) [4D0A9DC6] (AR v2)
Copy OK
Track 11
Filename L:\EAC\11 - I Wonder Who My Daddy Is.wav
Peak level 88.0 %
Extraction speed 3.1 X
Track quality 100.0 %
Test CRC 60DEE2D7
Copy CRC 60DEE2D7
Accurately ripped (confidence 18) [ED965F1E] (AR v2)
Copy OK
Track 12
Filename L:\EAC\12 - The Christmas Song.wav
Peak level 88.9 %
Extraction speed 3.2 X
Track quality 100.0 %
Test CRC 7C42A4F6
Copy CRC 7C42A4F6
Accurately ripped (confidence 18) [762E0782] (AR v2)
Copy OK
All tracks accurately ripped
No errors occurred
End of status report
---- CUETools DB Plugin V2.1.6
[CTDB TOCID: MP.w7OkRKHOUd0qZ.UkQ2RM0KZw-] found
Submit result: already submitted
Track | CTDB Status
1 | (162/162) Accurately ripped
2 | (162/162) Accurately ripped
3 | (162/162) Accurately ripped
4 | (162/162) Accurately ripped
5 | (162/162) Accurately ripped
6 | (162/162) Accurately ripped
7 | (162/162) Accurately ripped
8 | (162/162) Accurately ripped
9 | (161/162) Accurately ripped
10 | (162/162) Accurately ripped
11 | (161/162) Accurately ripped
12 | (161/162) Accurately ripped
==== Log checksum C710354A5D26581C41C82C2773A789E1748D2286AE756CC86741AEEC3974FA73 ====
 
Содержание индексной карты (.CUE)
REM GENRE Jazz
REM DATE 2017
REM DISCID A20BA40C
REM COMMENT "ExactAudioCopy v1.3"
PERFORMER "Gregory Porter"
TITLE "Nat ''King'' Cole & Me"
REM COMPOSER ""
FILE "01 - Mona Lisa.wav" WAVE
TRACK 01 AUDIO
TITLE "Mona Lisa"
PERFORMER "Gregory Porter"
REM COMPOSER ""
INDEX 01 00:00:00
FILE "02 - Smile.wav" WAVE
TRACK 02 AUDIO
TITLE "Smile"
PERFORMER "Gregory Porter"
REM COMPOSER ""
INDEX 01 00:00:00
FILE "03 - Nature Boy.wav" WAVE
TRACK 03 AUDIO
TITLE "Nature Boy"
PERFORMER "Gregory Porter"
REM COMPOSER ""
INDEX 01 00:00:00
FILE "04 - L-O-V-E.wav" WAVE
TRACK 04 AUDIO
TITLE "L-O-V-E"
PERFORMER "Gregory Porter"
REM COMPOSER ""
INDEX 01 00:00:00
FILE "05 - Quizas, Quizas, Quizas.wav" WAVE
TRACK 05 AUDIO
TITLE "Quizas, Quizas, Quizas"
PERFORMER "Gregory Porter"
REM COMPOSER ""
INDEX 01 00:00:00
FILE "06 - Miss Otis Regrets.wav" WAVE
TRACK 06 AUDIO
TITLE "Miss Otis Regrets"
PERFORMER "Gregory Porter"
REM COMPOSER ""
INDEX 01 00:00:00
FILE "07 - Pick Yourself Up.wav" WAVE
TRACK 07 AUDIO
TITLE "Pick Yourself Up"
PERFORMER "Gregory Porter"
REM COMPOSER ""
INDEX 01 00:00:00
FILE "08 - When Love Was King.wav" WAVE
TRACK 08 AUDIO
TITLE "When Love Was King"
PERFORMER "Gregory Porter"
REM COMPOSER ""
INDEX 01 00:00:00
FILE "09 - The Lonely One.wav" WAVE
TRACK 09 AUDIO
TITLE "The Lonely One"
PERFORMER "Gregory Porter"
REM COMPOSER ""
INDEX 01 00:00:00
FILE "10 - Ballerina.wav" WAVE
TRACK 10 AUDIO
TITLE "Ballerina"
PERFORMER "Gregory Porter"
REM COMPOSER ""
INDEX 01 00:00:00
FILE "11 - I Wonder Who My Daddy Is.wav" WAVE
TRACK 11 AUDIO
TITLE "I Wonder Who My Daddy Is"
PERFORMER "Gregory Porter"
REM COMPOSER ""
INDEX 01 00:00:00
FILE "12 - The Christmas Song.wav" WAVE
TRACK 12 AUDIO
TITLE "The Christmas Song"
PERFORMER "Gregory Porter"
REM COMPOSER ""
INDEX 01 00:00:00
Скачивание доступно после регистрации!!
Приватный:
Нет (DHT включён)
Размер:
419.60 Мб (439,981,227 байт) » файлов: 27
Участники:
0 раздают, 0 качают (0 участников всего)
Внешние участники:
--- [ Обновить ]
06:54
12
Нет комментариев. Ваш будет первым!