Поиск

(Vocal Jazz) [CD] Caro Emerald - Metropole Orkest & Caro Emerald - MO x Caro Emerald By Grandmono - 2017, FLAC (image+.cue), lossless

(Vocal Jazz) [CD] Caro Emerald - Metropole Orkest & Caro Emerald - MO x Caro Emerald By Grandmono - 2017, FLAC (image+.cue), lossless
Треклист:
Caro Emerald / Metropole Orkest & Caro Emerald - MO x Caro Emerald By Grandmono
Жанр: Vocal Jazz
Носитель: CD
Страна-производитель диска (релиза): Нидерланды
Год издания: 2017
Издатель (лейбл): Grandmono Records
Номер по каталогу: SREMRA GMCD097 8718546200687
Страна исполнителя (группы): Нидерланды
Аудиокодек: FLAC (*.flac)
Тип рипа: image+.cue
Битрейт аудио: lossless
Продолжительность: 00:21:57
Источник (релизер): собственный рип
Наличие сканов в содержимом раздачи: да
Треклист:
01. Tahitian Skies [0:04:26.61]
02. The Ghost Of You [0:03:52.68]
03. A Night Like This [0:04:42.44]
04. Home [0:03:44.01]
05. Little Snowflake [0:02:13.35]
06. Something For Christmas [0:02:57.41]
 
Лог создания рипа
Exact Audio Copy V1.0 beta 3 from 29. August 2011
Отчёт EAC об извлечении, выполненном 13. марта 2018, 21:04
Metropole Orkest & Caro Emerald / MO x Caro Emerald By Grandmono
Дисковод: PLEXTOR DVDR PX-755A Adapter: 1 ID: 1
Режим чтения : Достоверность
Использование точного потока : Да
Отключение кэша аудио : Да
Использование указателей C2 : Нет
Коррекция смещения при чтении : 30
Способность читать области Lead-in и Lead-out : Нет
Заполнение пропущенных сэмплов тишиной : Да
Удаление блоков с тишиной в начале и конце : Нет
При вычислениях CRC использовались нулевые сэмплы : Да
Интерфейс : Установленный внешний ASPI-интерфейс
Выходной формат : Пользовательский кодировщик
Выбранный битрейт : 1024 kBit/s
Качество : Высокий
Добавление ID3-тега : Нет
Утилита сжатия : C:\Program Files (x86)\Exact Audio Copy\Flac\flac.exe
Дополнительные параметры : -V -8 -T "Date=%year%" -T "Genre=%genre%" %source%
TOC извлечённого CD
Трек | Старт | Длительность | Начальный сектор | Конечный сектор
---------------------------------------------------------------------
1 | 0:00.00 | 4:26.61 | 0 | 20010
2 | 4:26.61 | 3:52.68 | 20011 | 37478
3 | 8:19.54 | 4:42.44 | 37479 | 58672
4 | 13:02.23 | 3:44.01 | 58673 | 75473
5 | 16:46.24 | 2:13.35 | 75474 | 85483
6 | 18:59.59 | 2:57.41 | 85484 | 98799
Характеристики диапазона извлечения и сообщения об ошибках
Выбранный диапазон
Имя файла E:\РАЗДАЧА\Metropole Orkest & Caro Emerald (The Netherlands )\Metropole Orkest & Caro Emerald - MO x Caro Emerald By Grandmono.wav
Пиковый уровень 98.5 %
Скорость извлечения 7.0 X
Качество диапазона 100.0 %
CRC теста D3E5E884
CRC копии D3E5E884
Копирование... OK
Ошибок не произошло
AccurateRip: сводка
Трек 1 : извлечено точно (доверие 1) [E0B751AB] (AR v2)
Трек 2 : извлечено точно (доверие 1) [9B77BACC] (AR v2)
Трек 3 : извлечено точно (доверие 1) [4E7F8305] (AR v2)
Трек 4 : извлечено точно (доверие 1) [F107694A] (AR v2)
Трек 5 : извлечено точно (доверие 1) [C945C003] (AR v2)
Трек 6 : извлечено точно (доверие 1) [9B7B71BC] (AR v2)
Все треки извлечены точно
Конец отчёта
==== Контрольная сумма отчёта 66FAE8E27B9CE1A9E1317A7AD1FBFEE4095B6728C64C56FF5D0E1AF6C211ACF6 ====
Приватный:
Нет (DHT включён)
Размер:
175.60 Мб (184,133,215 байт) » файлов: 12
Участники:
0 раздают, 0 качают (0 участников всего)
Внешние участники:
26 раздают, 8 качают (34 участников всего) [ Обновить ]
06:55
12
Нет комментариев. Ваш будет первым!