Поиск

(Vocal Jazz) [CD] Frank Minion - The Soft Land Of Make Believe (1960) - 2013, FLAC (tracks+.cue), lossless

(Vocal Jazz) [CD] Frank Minion - The Soft Land Of Make Believe (1960) - 2013, FLAC (tracks+.cue), lossless
Треклист:
Frank Minion - The Soft Land Of Make Believe (1960) Жанр: Vocal Jazz
Носитель: CD
Страна-производитель диска (релиза): Japan
Год издания: 2013
Издатель (лейбл): Solid Records Japan/Bethlehem Records
Номер по каталогу: CDSOL-6054
Аудиокодек: FLAC (*.flac)
Тип рипа: tracks+.cue
Битрейт аудио: lossless
Продолжительность: 42:02
Источник (релизер): ruskaval
Наличие сканов в содержимом раздачи: да
Треклист:
01. The Soft Land Of Make Believe (1:35)
02. Knowbody Knows (3:32)
03. Autobiography Of A Musician (1:26)
04. Bongo Blues (2:47)
05. Oddville, U.S.A (1:25)
06. Things Ain't Like They Used To Went (3:53)
07. Salaam My Child (1:25)
08. Laughing Boy (3:28)
09. Later (1:42)
10. Flamenco Sketches (4:22)
11. Round Midnight (5:35)
12. So What (4:24)
13. Watermelon (2:54)
14. You I Love (3:35)

 
Personnel on tracks 1-9:
Frank Minion - voice
Roland Alexander - tenor sax, flute
Tommy Flanagan - piano
George Tucker - bass
Dannie Richmond - drums
Personnel on tracks 10-12:
Frank Minion - voice
Bill Evans - piano
Paul Chambers - bass
Jimmy Cobb - drums
 
Personnel on tracks 13, 14:
Frank Minion - voice
Kenny Burrell - guitar
Jimmy Jones - piano
Joe Benjamin - bass
Ed Thigpen - drums

Rec.: New York 1959 (#1-9) and 1960 (#10-14).

 
 
Несколько слов на английском
Features the latest remastering. Includes a Japanese description and lyrics.
 
AllMusic Review by Michael G. Nastos
Frank Minion's one and only recording is a fascinating window into the world of a jazz performer. Quite cynical and sarcastic toward the jaundiced American view of the jazz life, Minion minces no words in stating his case, his reasons why, and his conclusions as to the home country of the music so thoroughly dismissing the music he loves. As this project was done back in the late '50s and early '60s, it reflects a syndrome that unfortunately still exists 50 years later. The CD reissue begins with a five-part suite based on the talking points and songs reflecting the vagaries and perceptions of a fictional big city neighborhood, which just as easily could be the reality of renaissance Harlem, references to Atlanta, or perhaps his native Baltimore. The second half features familiar standards with Minion's original lyrics or vocal lines adapted and extended with Minion's further remarks. "Introduction to Black Opium Street" has nine total sub-segments centered on the tough life of a jazzman, social issues, relations with women, and inferences to drug use. It is not all that dissimilar to the famous Charles Mingus poetry piece "Scenes in the City." The title track is a speak-out on squares, "Knowbody Knows" says that J.C. Heard and Billie Holiday know what others don't, "Bongo Blues" adopts a pseudo-Latin stance on a cautionary tale of playing the "skins" for cigarettes and pork & beans, while "Things Ain't Like They Used to Went" is an over the top wigged-out shout very similar to Babs Gonzales. The remainder of the songs are spoken or sung ballads as Minion is bummed out about a "brother" in "Salaam My Child," plays the sad clown in "Laughing Boy," and espouses hip bluesy jargon of the day in "Later." Roland Alexander's tenor sax and especially flute playing, and the emerging pianist Tommy Flanagan, stand out. Three cuts with the Bill Evans trio that worked with Miles Davis show Minion's ability to stretch familiar themes, and comprise his most vibrant work. His clever melding of "All Blues" and "Flamenco Sketches" is a love plea, including the self-deprecating phrase "Hey flamenco, I bet you think I am stinko." "'Round Midnight" expresses the same romantic sentiment as the original with a slightly added-on lyric, while "So What" is a completely different line, incorporating a theme of reaching out for help. The remaining two tracks, originals of Minion, have his voice in a distant thin echo. "Watermelon" is a Latin-ish shoutin' blues, while the statement "You I Love" precludes 36 lines of pleading calypso-fired rhythms in different keys, accented by an occasional Mickey & Sylvia "Love Is Strange" rock & roll phrase from guitarist Kenny Burrell. A time capsule of male post-vocalese jazz, and a tone parallel to Babs Gonzales without the histrionics or comedic rapport, Minion's lone statement is a very good one, and all should be glad it is finally available again.

 
Лог создания рипа
Exact Audio Copy V1.0 beta 3 from 29. August 2011
EAC extraction logfile from 18. July 2014, 12:42
Frank Minion / The Soft Land of Make Believe
Used drive : ATAPI DVD A DH16ABSH Adapter: 2 ID: 1
Read mode : Secure
Utilize accurate stream : Yes
Defeat audio cache : Yes
Make use of C2 pointers : No
Read offset correction : 6
Overread into Lead-In and Lead-Out : No
Fill up missing offset samples with silence : Yes
Delete leading and trailing silent blocks : No
Null samples used in CRC calculations : Yes
Used interface : Native Win32 interface for Win NT & 2000
Gap handling : Appended to previous track
Used output format : User Defined Encoder
Selected bitrate : 128 kBit/s
Quality : High
Add ID3 tag : No
Command line compressor : C:\Program Files (x86)\Exact Audio Copy\FLAC\FLAC.EXE
Additional command line options : -8 -V -T "ARTIST=%artist%" -T "TITLE=%title%" -T "ALBUM=%albumtitle%" -T "DATE=%year%" -T "TRACKNUMBER=%tracknr%" -T "TOTALTRACKS=%numtracks%" -T "GENRE=%genre%" -T "ALBUMARTIST=%albumartist%" -T "ALBUM ARTIST=%albumartist%" -T "COMMENT=EAC Secure Mode, Test & Copy, AccurateRip, FLAC -8" %source%
TOC of the extracted CD
Track | Start | Length | Start sector | End sector
---------------------------------------------------------
1 | 0:00.00 | 1:34.41 | 0 | 7090
2 | 1:34.41 | 3:32.10 | 7091 | 23000
3 | 5:06.51 | 1:25.50 | 23001 | 29425
4 | 6:32.26 | 2:46.59 | 29426 | 41934
5 | 9:19.10 | 1:25.37 | 41935 | 48346
6 | 10:44.47 | 3:52.67 | 48347 | 65813
7 | 14:37.39 | 1:25.21 | 65814 | 72209
8 | 16:02.60 | 3:27.45 | 72210 | 87779
9 | 19:30.30 | 1:41.66 | 87780 | 95420
10 | 21:12.21 | 4:21.58 | 95421 | 115053
11 | 25:34.04 | 5:35.20 | 115054 | 140198
12 | 31:09.24 | 4:24.15 | 140199 | 160013
13 | 35:33.39 | 2:53.67 | 160014 | 173055
14 | 38:27.31 | 3:34.47 | 173056 | 189152
Track 1
Filename C:\Users\owner\Desktop\Frank Minion - The Soft Land of Make Believe (1959-60) [FLAC] {Bethlehem CDSOL-6054}\01 - The Soft Land Of Make Believe.wav
Pre-gap length 0:00:02.00
Peak level 98.2 %
Extraction speed 2.6 X
Track quality 100.0 %
Test CRC 1E5364DC
Copy CRC 1E5364DC
Accurately ripped (confidence 1) [9520CDB5] (AR v1)
Copy OK
Track 2
Filename C:\Users\owner\Desktop\Frank Minion - The Soft Land of Make Believe (1959-60) [FLAC] {Bethlehem CDSOL-6054}\02 - Knowbody Knows.wav
Peak level 98.3 %
Extraction speed 2.8 X
Track quality 99.9 %
Test CRC 5CDF495A
Copy CRC 5CDF495A
Accurately ripped (confidence 1) [717FCF3D] (AR v1)
Copy OK
Track 3
Filename C:\Users\owner\Desktop\Frank Minion - The Soft Land of Make Believe (1959-60) [FLAC] {Bethlehem CDSOL-6054}\03 - Autobiography of a Musician.wav
Peak level 98.2 %
Extraction speed 1.9 X
Track quality 99.8 %
Test CRC C415E3FF
Copy CRC C415E3FF
Accurately ripped (confidence 1) [13C1F16C] (AR v1)
Copy OK
Track 4
Filename C:\Users\owner\Desktop\Frank Minion - The Soft Land of Make Believe (1959-60) [FLAC] {Bethlehem CDSOL-6054}\04 - Bongo Blues.wav
Peak level 98.3 %
Extraction speed 3.7 X
Track quality 100.0 %
Test CRC D446052F
Copy CRC D446052F
Accurately ripped (confidence 1) [62B57AB4] (AR v1)
Copy OK
Track 5
Filename C:\Users\owner\Desktop\Frank Minion - The Soft Land of Make Believe (1959-60) [FLAC] {Bethlehem CDSOL-6054}\05 - Oddville, U.S.A.wav
Peak level 98.2 %
Extraction speed 3.3 X
Track quality 100.0 %
Test CRC 7A8C0EC0
Copy CRC 7A8C0EC0
Accurately ripped (confidence 1) [697EE18D] (AR v1)
Copy OK
Track 6
Filename C:\Users\owner\Desktop\Frank Minion - The Soft Land of Make Believe (1959-60) [FLAC] {Bethlehem CDSOL-6054}\06 - Things Ain't Like They Used To Went.wav
Peak level 98.3 %
Extraction speed 4.2 X
Track quality 100.0 %
Test CRC 7D6A11F0
Copy CRC 7D6A11F0
Accurately ripped (confidence 1) [DFAEB270] (AR v1)
Copy OK
Track 7
Filename C:\Users\owner\Desktop\Frank Minion - The Soft Land of Make Believe (1959-60) [FLAC] {Bethlehem CDSOL-6054}\07 - Salaam My Child.wav
Peak level 98.2 %
Extraction speed 3.5 X
Track quality 100.0 %
Test CRC A47BA484
Copy CRC A47BA484
Accurately ripped (confidence 1) [6DF033C8] (AR v1)
Copy OK
Track 8
Filename C:\Users\owner\Desktop\Frank Minion - The Soft Land of Make Believe (1959-60) [FLAC] {Bethlehem CDSOL-6054}\08 - Laughing Boy.wav
Peak level 98.3 %
Extraction speed 4.4 X
Track quality 100.0 %
Test CRC 505DCFA5
Copy CRC 505DCFA5
Accurately ripped (confidence 1) [CF18A9A8] (AR v1)
Copy OK
Track 9
Filename C:\Users\owner\Desktop\Frank Minion - The Soft Land of Make Believe (1959-60) [FLAC] {Bethlehem CDSOL-6054}\09 - Later.wav
Peak level 98.2 %
Extraction speed 2.5 X
Track quality 99.8 %
Test CRC AF177376
Copy CRC AF177376
Accurately ripped (confidence 1) [2D97BE35] (AR v1)
Copy OK
Track 10
Filename C:\Users\owner\Desktop\Frank Minion - The Soft Land of Make Believe (1959-60) [FLAC] {Bethlehem CDSOL-6054}\10 - Flamenco Sketches.wav
Peak level 98.3 %
Extraction speed 5.0 X
Track quality 100.0 %
Test CRC 1CDB25FA
Copy CRC 1CDB25FA
Accurately ripped (confidence 1) [FDAAF3CE] (AR v1)
Copy OK
Track 11
Filename C:\Users\owner\Desktop\Frank Minion - The Soft Land of Make Believe (1959-60) [FLAC] {Bethlehem CDSOL-6054}\11 - Round Midnight.wav
Peak level 98.3 %
Extraction speed 5.3 X
Track quality 100.0 %
Test CRC FA432DD5
Copy CRC FA432DD5
Accurately ripped (confidence 1) [026FF5EE] (AR v1)
Copy OK
Track 12
Filename C:\Users\owner\Desktop\Frank Minion - The Soft Land of Make Believe (1959-60) [FLAC] {Bethlehem CDSOL-6054}\12 - So What.wav
Peak level 98.3 %
Extraction speed 5.6 X
Track quality 100.0 %
Test CRC 3D8BC348
Copy CRC 3D8BC348
Accurately ripped (confidence 1) [CD67FEE9] (AR v1)
Copy OK
Track 13
Filename C:\Users\owner\Desktop\Frank Minion - The Soft Land of Make Believe (1959-60) [FLAC] {Bethlehem CDSOL-6054}\13 - Watermelon.wav
Peak level 98.2 %
Extraction speed 5.3 X
Track quality 100.0 %
Test CRC 14504F40
Copy CRC 14504F40
Accurately ripped (confidence 1) [7A9A4D95] (AR v1)
Copy OK
Track 14
Filename C:\Users\owner\Desktop\Frank Minion - The Soft Land of Make Believe (1959-60) [FLAC] {Bethlehem CDSOL-6054}\14 - You I Love.wav
Peak level 98.3 %
Extraction speed 5.8 X
Track quality 100.0 %
Test CRC D925F4A1
Copy CRC D925F4A1
Accurately ripped (confidence 1) [4677B778] (AR v1)
Copy OK
All tracks accurately ripped
No errors occurred
End of status report
==== Log checksum 65B473BC2FF52A2B725936D0D9629C371F4DBE26000EFE0D0AD5B1CE389A8E27 ====
 
Содержание индексной карты (.CUE)
REM GENRE Jazz
REM DATE 1960
REM DISCID C509DA0E
REM COMMENT "ExactAudioCopy v1.0b3"
PERFORMER "Frank Minion"
TITLE "The Soft Land Of Make Believe"
FILE "01 - The Soft Land Of Make Believe.wav" WAVE
TRACK 01 AUDIO
TITLE "The Soft Land Of Make Believe"
PERFORMER "Frank Minion"
INDEX 01 00:00:00
FILE "02 - Knowbody Knows.wav" WAVE
TRACK 02 AUDIO
TITLE "Knowbody Knows"
PERFORMER "Frank Minion"
INDEX 01 00:00:00
FILE "03 - Autobiography Of A Musician.wav" WAVE
TRACK 03 AUDIO
TITLE "Autobiography Of A Musician"
PERFORMER "Frank Minion"
INDEX 01 00:00:00
FILE "04 - Bongo Blues.wav" WAVE
TRACK 04 AUDIO
TITLE "Bongo Blues"
PERFORMER "Frank Minion"
INDEX 01 00:00:00
FILE "05 - Oddville, U.S.A.wav" WAVE
TRACK 05 AUDIO
TITLE "Oddville, U.S.A"
PERFORMER "Frank Minion"
INDEX 01 00:00:00
FILE "06 - Things Ain't Like They Used To Went.wav" WAVE
TRACK 06 AUDIO
TITLE "Things Ain't Like They Used To Went"
PERFORMER "Frank Minion"
INDEX 01 00:00:00
FILE "07 - Salaam My Child.wav" WAVE
TRACK 07 AUDIO
TITLE "Salaam My Child"
PERFORMER "Frank Minion"
INDEX 01 00:00:00
FILE "08 - Laughing Boy.wav" WAVE
TRACK 08 AUDIO
TITLE "Laughing Boy"
PERFORMER "Frank Minion"
INDEX 01 00:00:00
FILE "09 - Later.wav" WAVE
TRACK 09 AUDIO
TITLE "Later"
PERFORMER "Frank Minion"
INDEX 01 00:00:00
FILE "10 - Flamenco Sketches.wav" WAVE
TRACK 10 AUDIO
TITLE "Flamenco Sketches"
PERFORMER "Frank Minion"
INDEX 01 00:00:00
FILE "11 - Round Midnight.wav" WAVE
TRACK 11 AUDIO
TITLE "Round Midnight"
PERFORMER "Frank Minion"
INDEX 01 00:00:00
FILE "12 - So What.wav" WAVE
TRACK 12 AUDIO
TITLE "So What"
PERFORMER "Frank Minion"
INDEX 01 00:00:00
FILE "13 - Watermelon.wav" WAVE
TRACK 13 AUDIO
TITLE "Watermelon"
PERFORMER "Frank Minion"
INDEX 01 00:00:00
FILE "14 - You I Love.wav" WAVE
TRACK 14 AUDIO
TITLE "You I Love"
PERFORMER "Frank Minion"
INDEX 01 00:00:00
Скачивание доступно после регистрации!!
Приватный:
Нет (DHT включён)
Размер:
311.44 Мб (326,570,898 байт) » файлов: 32
Участники:
0 раздают, 0 качают (0 участников всего)
Внешние участники:
--- [ Обновить ]
06:59
6
Нет комментариев. Ваш будет первым!