Поиск

(Vocal Jazz) [CD] Frank Minion - The Forward Sound (1958) - 2013, FLAC (tracks+.cue), lossless

(Vocal Jazz) [CD] Frank Minion - The Forward Sound (1958) - 2013, FLAC (tracks+.cue), lossless
Треклист:
Frank Minion - The Forward Sound (1958) Жанр: Vocal Jazz
Носитель: CD
Страна-производитель диска (релиза): Japan
Год издания: 2013
Издатель (лейбл): Solid Records Japan/Bethlehem Records
Номер по каталогу: CDSOL-6053
Аудиокодек: FLAC (*.flac)
Тип рипа: tracks+.cue
Битрейт аудио: lossless
Продолжительность: 34:02
Источник (релизер): ruskaval
Наличие сканов в содержимом раздачи: да
Треклист:
01. Take The “A” Train (3:08)
02. But Not For Me (3:17)
03. I've Done My Share (3:58)
04. Watermelon (3:03)
05. Night In Tunisia (3:17)
06. Night And Day (3:04)
07. Doodlin' (3:31)
08. Who Stole The Mambo (2:38)
09. Lady Bird (2:48)
10. Holy Mackerel (1:44)
11. You I Love (3:35)
Frank Minion - vocals
no details of accompaniasts
Rec.: New York City, NY, September 7, 1958.
 
 
Несколько слов на английском
Features the latest remastering. Includes a Japanese description and lyrics. One of the few albums ever issued by vocalist Frank Minion – an ultra-hip singer that we'd rank right up there as one of our favorites ever! Although the cover bears a 1970 date, the album was recorded in the late 50s – and date reference is a great indication of the forward-thinking approach that Frank brings to his vocals! Minion works with echoes of some of his hippest contemporaries – particularly Oscar Brown and Eddie Jefferson – but he's also got a voice that's really individual, too – a lighter and fluid, especially when he hits some horn-like inflections – spurred on by the hip small combo of the backings. There appears to be a bit of crossover with Frank's other Bethlehem record, but we're not sure.
Bethlehem Records roster of artists in the 1950s was truly impressive: Nina Simone, Carmen McRae, Dexter Gordon, Charles Mingus, Art Blakey and Duke Ellington. The labels legacy is a lengthy discography that freshly and ambitiously captured and preserved an era of truly amazing music, including West Coast Cool Jazz and East Coast Bop. Despite the 1970 date and semi-psychedlic cover, this forward-looking album by jazz crooner Frank Minion was actually recorded in 1958. Each track has been restored from the original analog sound recording & digitally re-mastered.

 
Лог создания рипа
Exact Audio Copy V1.0 beta 3 from 29. August 2011
EAC extraction logfile from 21. July 2014, 12:46
Frank Minion / The Forward Sound
Used drive : ATAPI DVD A DH16ABSH Adapter: 2 ID: 1
Read mode : Secure
Utilize accurate stream : Yes
Defeat audio cache : Yes
Make use of C2 pointers : No
Read offset correction : 6
Overread into Lead-In and Lead-Out : No
Fill up missing offset samples with silence : Yes
Delete leading and trailing silent blocks : No
Null samples used in CRC calculations : Yes
Used interface : Native Win32 interface for Win NT & 2000
Gap handling : Appended to previous track
Used output format : User Defined Encoder
Selected bitrate : 128 kBit/s
Quality : High
Add ID3 tag : No
Command line compressor : C:\Program Files (x86)\Exact Audio Copy\FLAC\FLAC.EXE
Additional command line options : -8 -V -T "ARTIST=%artist%" -T "TITLE=%title%" -T "ALBUM=%albumtitle%" -T "DATE=%year%" -T "TRACKNUMBER=%tracknr%" -T "TOTALTRACKS=%numtracks%" -T "GENRE=%genre%" -T "ALBUMARTIST=%albumartist%" -T "ALBUM ARTIST=%albumartist%" -T "COMMENT=EAC Secure Mode, Test & Copy, AccurateRip, FLAC -8" %source%
TOC of the extracted CD
Track | Start | Length | Start sector | End sector
---------------------------------------------------------
1 | 0:00.00 | 3:08.18 | 0 | 14117
2 | 3:08.18 | 3:16.74 | 14118 | 28891
3 | 6:25.17 | 3:57.74 | 28892 | 46740
4 | 10:23.16 | 3:02.50 | 46741 | 60440
5 | 13:25.66 | 3:17.29 | 60441 | 75244
6 | 16:43.20 | 3:03.73 | 75245 | 89042
7 | 19:47.18 | 3:31.09 | 89043 | 104876
8 | 23:18.27 | 2:37.43 | 104877 | 116694
9 | 25:55.70 | 2:47.48 | 116695 | 129267
10 | 28:43.43 | 1:43.54 | 129268 | 137046
11 | 30:27.22 | 3:34.44 | 137047 | 153140
Track 1
Filename C:\Users\owner\Desktop\Frank Minion - The Forward Sound (1958) [FLAC] {Bethlehem CDSOL-6053}\01 - Take The ''A'' Train.wav
Pre-gap length 0:00:02.00
Peak level 98.3 %
Extraction speed 2.5 X
Track quality 99.9 %
Test CRC A78C19F0
Copy CRC A78C19F0
Accurately ripped (confidence 1) [743ABB37] (AR v1)
Copy OK
Track 2
Filename C:\Users\owner\Desktop\Frank Minion - The Forward Sound (1958) [FLAC] {Bethlehem CDSOL-6053}\02 - But Not For Me.wav
Peak level 98.2 %
Extraction speed 3.6 X
Track quality 100.0 %
Test CRC 9D7AB29B
Copy CRC 9D7AB29B
Accurately ripped (confidence 1) [0671B78A] (AR v1)
Copy OK
Track 3
Filename C:\Users\owner\Desktop\Frank Minion - The Forward Sound (1958) [FLAC] {Bethlehem CDSOL-6053}\03 - I've Done My Share.wav
Peak level 98.2 %
Extraction speed 4.0 X
Track quality 100.0 %
Test CRC FCE51A5A
Copy CRC FCE51A5A
Accurately ripped (confidence 1) [4876F48F] (AR v1)
Copy OK
Track 4
Filename C:\Users\owner\Desktop\Frank Minion - The Forward Sound (1958) [FLAC] {Bethlehem CDSOL-6053}\04 - Watermelon.wav
Peak level 98.2 %
Extraction speed 4.1 X
Track quality 100.0 %
Test CRC 65BB4C81
Copy CRC 65BB4C81
Accurately ripped (confidence 1) [D5C8DD5F] (AR v1)
Copy OK
Track 5
Filename C:\Users\owner\Desktop\Frank Minion - The Forward Sound (1958) [FLAC] {Bethlehem CDSOL-6053}\05 - Night In Tunisia.wav
Peak level 98.2 %
Extraction speed 4.4 X
Track quality 100.0 %
Test CRC E7BD3301
Copy CRC E7BD3301
Accurately ripped (confidence 1) [38DF7E71] (AR v1)
Copy OK
Track 6
Filename C:\Users\owner\Desktop\Frank Minion - The Forward Sound (1958) [FLAC] {Bethlehem CDSOL-6053}\06 - Night And Day.wav
Peak level 98.3 %
Extraction speed 4.5 X
Track quality 100.0 %
Test CRC CBFB1399
Copy CRC CBFB1399
Accurately ripped (confidence 1) [0A0CD964] (AR v1)
Copy OK
Track 7
Filename C:\Users\owner\Desktop\Frank Minion - The Forward Sound (1958) [FLAC] {Bethlehem CDSOL-6053}\07 - Doodlin'.wav
Peak level 98.2 %
Extraction speed 3.8 X
Track quality 99.9 %
Test CRC B1812612
Copy CRC B1812612
Accurately ripped (confidence 1) [EF6B0A48] (AR v1)
Copy OK
Track 8
Filename C:\Users\owner\Desktop\Frank Minion - The Forward Sound (1958) [FLAC] {Bethlehem CDSOL-6053}\08 - Who Stole The Mambo.wav
Peak level 98.2 %
Extraction speed 4.8 X
Track quality 100.0 %
Test CRC AAEBE293
Copy CRC AAEBE293
Accurately ripped (confidence 1) [2F26B662] (AR v1)
Copy OK
Track 9
Filename C:\Users\owner\Desktop\Frank Minion - The Forward Sound (1958) [FLAC] {Bethlehem CDSOL-6053}\09 - Lady Bird.wav
Peak level 98.2 %
Extraction speed 3.7 X
Track quality 99.9 %
Test CRC 48087284
Copy CRC 48087284
Accurately ripped (confidence 1) [0AD287A3] (AR v1)
Copy OK
Track 10
Filename C:\Users\owner\Desktop\Frank Minion - The Forward Sound (1958) [FLAC] {Bethlehem CDSOL-6053}\10 - Holy Mackerel.wav
Peak level 98.2 %
Extraction speed 4.6 X
Track quality 100.0 %
Test CRC 820287E7
Copy CRC 820287E7
Accurately ripped (confidence 1) [30FF0867] (AR v1)
Copy OK
Track 11
Filename C:\Users\owner\Desktop\Frank Minion - The Forward Sound (1958) [FLAC] {Bethlehem CDSOL-6053}\11 - You I Love.wav
Peak level 98.2 %
Extraction speed 5.5 X
Track quality 100.0 %
Test CRC E817AD0B
Copy CRC E817AD0B
Accurately ripped (confidence 1) [86C282CC] (AR v1)
Copy OK
All tracks accurately ripped
No errors occurred
End of status report
==== Log checksum EDB3C283831288D1E66FE6D33B8C98E702F4ED7FEEAF1103A99232041B3D8ECF ====
 
Содержание индексной карты (.CUE)
REM GENRE Jazz
REM DATE 1958
REM DISCID 8D07F90B
REM COMMENT "ExactAudioCopy v1.0b3"
PERFORMER "Frank Minion"
TITLE "The Forward Sound"
FILE "01 - Take The “A” Train.wav" WAVE
TRACK 01 AUDIO
TITLE "Take The “A” Train"
PERFORMER "Frank Minion"
INDEX 01 00:00:00
FILE "02 - But Not For Me.wav" WAVE
TRACK 02 AUDIO
TITLE "But Not For Me"
PERFORMER "Frank Minion"
INDEX 01 00:00:00
FILE "03 - I've Done My Share.wav" WAVE
TRACK 03 AUDIO
TITLE "I've Done My Share"
PERFORMER "Frank Minion"
INDEX 01 00:00:00
FILE "04 - Watermelon.wav" WAVE
TRACK 04 AUDIO
TITLE "Watermelon"
PERFORMER "Frank Minion"
INDEX 01 00:00:00
FILE "05 - Night In Tunisia.wav" WAVE
TRACK 05 AUDIO
TITLE "Night In Tunisia"
PERFORMER "Frank Minion"
INDEX 01 00:00:00
FILE "06 - Night And Day.wav" WAVE
TRACK 06 AUDIO
TITLE "Night And Day"
PERFORMER "Frank Minion"
INDEX 01 00:00:00
FILE "07 - Doodlin'.wav" WAVE
TRACK 07 AUDIO
TITLE "Doodlin'"
PERFORMER "Frank Minion"
INDEX 01 00:00:00
FILE "08 - Who Stole The Mambo.wav" WAVE
TRACK 08 AUDIO
TITLE "Who Stole The Mambo"
PERFORMER "Frank Minion"
INDEX 01 00:00:00
FILE "09 - Lady Bird.wav" WAVE
TRACK 09 AUDIO
TITLE "Lady Bird"
PERFORMER "Frank Minion"
INDEX 01 00:00:00
FILE "10 - Holy Mackerel.wav" WAVE
TRACK 10 AUDIO
TITLE "Holy Mackerel"
PERFORMER "Frank Minion"
INDEX 01 00:00:00
FILE "11 - You I Love.wav" WAVE
TRACK 11 AUDIO
TITLE "You I Love"
PERFORMER "Frank Minion"
INDEX 01 00:00:00
Скачивание доступно после регистрации!!
Приватный:
Нет (DHT включён)
Размер:
151.39 Мб (158,742,176 байт) » файлов: 29
Участники:
0 раздают, 0 качают (0 участников всего)
Внешние участники:
3 раздают, 1 качают (4 участников всего) [ Обновить ]
06:58
5
Нет комментариев. Ваш будет первым!