Поиск

(Vocal Jazz) [CD] Billie Holiday - The Chronological Classics: 1952 - 2003, FLAC (tracks+.cue), lossless

(Vocal Jazz) [CD] Billie Holiday - The Chronological Classics: 1952 - 2003, FLAC (tracks+.cue), lossless
Треклист:
Billie Holiday - The Chronological Classics: 1952
Жанр: Vocal Jazz
Носитель: CD
Страна-производитель диска (релиза): Франция
Год издания: 2003
Издатель (лейбл): Classics
Номер по каталогу: 1285
Страна исполнителя (группы): США
Аудиокодек: FLAC (*.flac)
Тип рипа: tracks+.cue
Битрейт аудио: lossless
Продолжительность: 67:51
Источник (релизер): adman130
Наличие сканов в содержимом раздачи: нет
Треклист:
01. East of the Sun (2:58)
02. Blue Moon (3:32)
03. You Go to My Head (2:58)
04. You Turned the Tables on Me (3:29)
05. Easy to Love (3:02)
06. These Foolish Things (3:36)
07. I Only Have Eyes for You (2:54)
08. Solitude (3:32)
09. Everything I Have Is Yours (3:47)
10. Love for Sale (2:59)
11. Moonglow (3:01)
12. Tenderly (3:25)
13. If the Moon Turns Green (2:48)
14. Remember? (2:38)
15. Autumn in New York (3:54)
16. My Man (2:39)
17. Lover, Come Back to Me (3:37)
18. Stormy Weather (3:44)
19. Yesterdays (2:51)
20. He's Funny That Way (3:13)
21. I Can't Face the Music (3:14)
 
Лог создания рипа
Exact Audio Copy V1.3 from 2. September 2016
EAC extraction logfile from 24. May 2018, 20:39
Billie Holiday / The Chronological Billie Holiday - 1952
Used drive : HP DVD Writer 1265v Adapter: 1 ID: 0
Read mode : Secure
Utilize accurate stream : Yes
Defeat audio cache : Yes
Make use of C2 pointers : No
Read offset correction : 6
Overread into Lead-In and Lead-Out : No
Fill up missing offset samples with silence : Yes
Delete leading and trailing silent blocks : No
Null samples used in CRC calculations : Yes
Used interface : Native Win32 interface for Win NT & 2000
Gap handling : Appended to previous track
Used output format : User Defined Encoder
Selected bitrate : 768 kBit/s
Quality : High
Add ID3 tag : No
Command line compressor : C:\Program Files (x86)\Exact Audio Copy\FLAC\FLAC.EXE
Additional command line options : -8 -e -p -V -T "ARTIST=%artist%" -T "TITLE=%title%" -T "ALBUM=%albumtitle%" -T "DATE=%year%" -T "TRACKNUMBER=%tracknr%" -T "GENRE=%genre%" -T "PERFORMER=%albuminterpret%" -T "COMPOSER=%composer%" %haslyrics%--tag-from-file=LYRICS="%lyricsfile%"%haslyrics% -T "ALBUMARTIST=%albumartist%" -T "DISCNUMBER=%cdnumber%" -T "TOTALDISCS=%totalcds%" -T "TOTALTRACKS=%numtracks%" -T "COMMENT=%comment%" %source% -o %dest%
TOC of the extracted CD
Track | Start | Length | Start sector | End sector
---------------------------------------------------------
1 | 0:00.32 | 2:57.49 | 32 | 13355
2 | 2:58.06 | 3:32.23 | 13356 | 29278
3 | 6:30.29 | 2:58.01 | 29279 | 42629
4 | 9:28.30 | 3:29.11 | 42630 | 58315
5 | 12:57.41 | 3:02.30 | 58316 | 71995
6 | 15:59.71 | 3:35.68 | 71996 | 88188
7 | 19:35.64 | 2:54.32 | 88189 | 101270
8 | 22:30.21 | 3:32.07 | 101271 | 117177
9 | 26:02.28 | 3:46.64 | 117178 | 134191
10 | 29:49.17 | 2:58.74 | 134192 | 147615
11 | 32:48.16 | 3:01.07 | 147616 | 161197
12 | 35:49.23 | 3:25.10 | 161198 | 176582
13 | 39:14.33 | 2:47.68 | 176583 | 189175
14 | 42:02.26 | 2:37.44 | 189176 | 200994
15 | 44:39.70 | 3:53.40 | 200995 | 218509
16 | 48:33.35 | 2:39.09 | 218510 | 230443
17 | 51:12.44 | 3:37.19 | 230444 | 246737
18 | 54:49.63 | 3:43.39 | 246738 | 263501
19 | 58:33.27 | 2:50.62 | 263502 | 276313
20 | 61:24.14 | 3:13.30 | 276314 | 290818
21 | 64:37.44 | 3:13.60 | 290819 | 305353
Track 1
Filename D:\Redacted\RIPS\Billie Holiday - The Chronological Billie Holiday - 1952 (2003) [FLAC]\01 - East Of The Sun.wav
Pre-gap length 0:00:02.42
Peak level 78.8 %
Extraction speed 1.7 X
Track quality 100.0 %
Test CRC 2423D9B0
Copy CRC 2423D9B0
Accurately ripped (confidence 1) [41B17AC2] (AR v2)
Copy OK
Track 2
Filename D:\Redacted\RIPS\Billie Holiday - The Chronological Billie Holiday - 1952 (2003) [FLAC]\02 - Blue Moon.wav
Pre-gap length 0:00:01.93
Peak level 88.6 %
Extraction speed 2.0 X
Track quality 100.0 %
Test CRC E99A9210
Copy CRC E99A9210
Accurately ripped (confidence 1) [06778027] (AR v2)
Copy OK
Track 3
Filename D:\Redacted\RIPS\Billie Holiday - The Chronological Billie Holiday - 1952 (2003) [FLAC]\03 - You Go To My Head.wav
Pre-gap length 0:00:01.93
Peak level 85.5 %
Extraction speed 2.1 X
Track quality 100.0 %
Test CRC 0F099081
Copy CRC 0F099081
Accurately ripped (confidence 1) [C7DDD716] (AR v2)
Copy OK
Track 4
Filename D:\Redacted\RIPS\Billie Holiday - The Chronological Billie Holiday - 1952 (2003) [FLAC]\04 - You Turned The Tables On Me.wav
Pre-gap length 0:00:01.93
Peak level 85.6 %
Extraction speed 1.6 X
Track quality 99.9 %
Test CRC 7EE5CF77
Copy CRC 7EE5CF77
Accurately ripped (confidence 1) [C9AB419D] (AR v2)
Copy OK
Track 5
Filename D:\Redacted\RIPS\Billie Holiday - The Chronological Billie Holiday - 1952 (2003) [FLAC]\05 - Easy To Love.wav
Pre-gap length 0:00:01.93
Peak level 81.5 %
Extraction speed 2.3 X
Track quality 100.0 %
Test CRC 3059670F
Copy CRC 3059670F
Accurately ripped (confidence 1) [E72B7B27] (AR v2)
Copy OK
Track 6
Filename D:\Redacted\RIPS\Billie Holiday - The Chronological Billie Holiday - 1952 (2003) [FLAC]\06 - These Foolish Things.wav
Pre-gap length 0:00:01.93
Peak level 83.1 %
Extraction speed 2.5 X
Track quality 100.0 %
Test CRC 03724C2C
Copy CRC 03724C2C
Accurately ripped (confidence 1) [22176243] (AR v2)
Copy OK
Track 7
Filename D:\Redacted\RIPS\Billie Holiday - The Chronological Billie Holiday - 1952 (2003) [FLAC]\07 - I Only Have Eyes For You.wav
Pre-gap length 0:00:01.93
Peak level 87.7 %
Extraction speed 2.6 X
Track quality 100.0 %
Test CRC 693A08E7
Copy CRC 693A08E7
Accurately ripped (confidence 1) [FBC4304E] (AR v2)
Copy OK
Track 8
Filename D:\Redacted\RIPS\Billie Holiday - The Chronological Billie Holiday - 1952 (2003) [FLAC]\08 - Solitude.wav
Pre-gap length 0:00:01.93
Peak level 79.5 %
Extraction speed 2.8 X
Track quality 100.0 %
Test CRC D17D7C5B
Copy CRC D17D7C5B
Accurately ripped (confidence 1) [2240A9CB] (AR v2)
Copy OK
Track 9
Filename D:\Redacted\RIPS\Billie Holiday - The Chronological Billie Holiday - 1952 (2003) [FLAC]\09 - Everything I Have Is Yours.wav
Pre-gap length 0:00:01.93
Peak level 88.6 %
Extraction speed 2.9 X
Track quality 100.0 %
Test CRC 1130C562
Copy CRC 1130C562
Accurately ripped (confidence 1) [4A11C5C8] (AR v2)
Copy OK
Track 10
Filename D:\Redacted\RIPS\Billie Holiday - The Chronological Billie Holiday - 1952 (2003) [FLAC]\10 - Love For Sale.wav
Pre-gap length 0:00:01.93
Peak level 88.6 %
Extraction speed 2.9 X
Track quality 100.0 %
Test CRC 79D5E32F
Copy CRC 79D5E32F
Accurately ripped (confidence 1) [4CBF20C6] (AR v2)
Copy OK
Track 11
Filename D:\Redacted\RIPS\Billie Holiday - The Chronological Billie Holiday - 1952 (2003) [FLAC]\11 - Moonglow.wav
Pre-gap length 0:00:01.93
Peak level 87.0 %
Extraction speed 3.0 X
Track quality 100.0 %
Test CRC F49A2D17
Copy CRC F49A2D17
Accurately ripped (confidence 1) [682E61E8] (AR v2)
Copy OK
Track 12
Filename D:\Redacted\RIPS\Billie Holiday - The Chronological Billie Holiday - 1952 (2003) [FLAC]\12 - Tenderly.wav
Pre-gap length 0:00:01.93
Peak level 84.6 %
Extraction speed 3.2 X
Track quality 100.0 %
Test CRC B945AA96
Copy CRC B945AA96
Accurately ripped (confidence 1) [AAF78AFB] (AR v2)
Copy OK
Track 13
Filename D:\Redacted\RIPS\Billie Holiday - The Chronological Billie Holiday - 1952 (2003) [FLAC]\13 - If The Moon Turns Green.wav
Pre-gap length 0:00:01.93
Peak level 86.3 %
Extraction speed 3.1 X
Track quality 100.0 %
Test CRC 4FD16F4F
Copy CRC 4FD16F4F
Accurately ripped (confidence 1) [751FD8EC] (AR v2)
Copy OK
Track 14
Filename D:\Redacted\RIPS\Billie Holiday - The Chronological Billie Holiday - 1952 (2003) [FLAC]\14 - Remember.wav
Pre-gap length 0:00:01.93
Peak level 84.6 %
Extraction speed 3.2 X
Track quality 100.0 %
Test CRC 81235609
Copy CRC 81235609
Accurately ripped (confidence 1) [464F42BA] (AR v2)
Copy OK
Track 15
Filename D:\Redacted\RIPS\Billie Holiday - The Chronological Billie Holiday - 1952 (2003) [FLAC]\15 - Autumn In New York.wav
Pre-gap length 0:00:01.93
Peak level 79.6 %
Extraction speed 3.5 X
Track quality 100.0 %
Test CRC E4894A24
Copy CRC E4894A24
Accurately ripped (confidence 1) [5B629542] (AR v2)
Copy OK
Track 16
Filename D:\Redacted\RIPS\Billie Holiday - The Chronological Billie Holiday - 1952 (2003) [FLAC]\16 - My Man.wav
Pre-gap length 0:00:01.93
Peak level 100.0 %
Extraction speed 3.4 X
Track quality 100.0 %
Test CRC DA043E5C
Copy CRC DA043E5C
Accurately ripped (confidence 1) [801ADA73] (AR v2)
Copy OK
Track 17
Filename D:\Redacted\RIPS\Billie Holiday - The Chronological Billie Holiday - 1952 (2003) [FLAC]\17 - Lover, Come Back To Me.wav
Pre-gap length 0:00:01.93
Peak level 83.5 %
Extraction speed 3.7 X
Track quality 100.0 %
Test CRC 78416F31
Copy CRC 78416F31
Accurately ripped (confidence 1) [32730991] (AR v2)
Copy OK
Track 18
Filename D:\Redacted\RIPS\Billie Holiday - The Chronological Billie Holiday - 1952 (2003) [FLAC]\18 - Stormy Weather.wav
Pre-gap length 0:00:01.93
Peak level 94.9 %
Extraction speed 3.8 X
Track quality 100.0 %
Test CRC 2AF24168
Copy CRC 2AF24168
Accurately ripped (confidence 1) [7FE219E5] (AR v2)
Copy OK
Track 19
Filename D:\Redacted\RIPS\Billie Holiday - The Chronological Billie Holiday - 1952 (2003) [FLAC]\19 - Yesterdays.wav
Pre-gap length 0:00:01.93
Peak level 94.9 %
Extraction speed 3.6 X
Track quality 100.0 %
Test CRC ECAC82B2
Copy CRC ECAC82B2
Accurately ripped (confidence 1) [EC2E508D] (AR v2)
Copy OK
Track 20
Filename D:\Redacted\RIPS\Billie Holiday - The Chronological Billie Holiday - 1952 (2003) [FLAC]\20 - He's Funny That Way.wav
Pre-gap length 0:00:01.93
Peak level 94.9 %
Extraction speed 3.8 X
Track quality 100.0 %
Test CRC 8A0CE083
Copy CRC 8A0CE083
Accurately ripped (confidence 1) [919E4F4A] (AR v2)
Copy OK
Track 21
Filename D:\Redacted\RIPS\Billie Holiday - The Chronological Billie Holiday - 1952 (2003) [FLAC]\21 - I Can't Face The Music.wav
Pre-gap length 0:00:01.93
Peak level 94.9 %
Extraction speed 3.8 X
Track quality 100.0 %
Test CRC 25471F6C
Copy CRC 25471F6C
Accurately ripped (confidence 1) [0842F18B] (AR v2)
Copy OK
All tracks accurately ripped
No errors occurred
End of status report
---- CUETools DB Plugin V2.1.6
[CTDB TOCID: wNkJNQVZEvQX9c1bZJG6IPO_A.8-] found
Submit result: wNkJNQVZEvQX9c1bZJG6IPO_A.8- has been confirmed
Track | CTDB Status
1 | (1/1) Accurately ripped
2 | (1/1) Accurately ripped
3 | (1/1) Accurately ripped
4 | (1/1) Accurately ripped
5 | (1/1) Accurately ripped
6 | (1/1) Accurately ripped
7 | (1/1) Accurately ripped
8 | (1/1) Accurately ripped
9 | (1/1) Accurately ripped
10 | (1/1) Accurately ripped
11 | (1/1) Accurately ripped
12 | (1/1) Accurately ripped
13 | (1/1) Accurately ripped
14 | (1/1) Accurately ripped
15 | (1/1) Accurately ripped
16 | (1/1) Accurately ripped
17 | (1/1) Accurately ripped
18 | (1/1) Accurately ripped
19 | (1/1) Accurately ripped
20 | (1/1) Accurately ripped
21 | (1/1) Accurately ripped
==== Log checksum 7F2325BCAEE3F5B424881686892C5ACA8498390983CA948FFD3C9E6FE9C07D15 ====
 
Содержание индексной карты (.CUE)
REM GENRE Jazz
REM DATE 2003
REM DISCID 400FE715
REM COMMENT "ExactAudioCopy v1.3"
PERFORMER "Billie Holiday"
TITLE "1952"
FILE "01 - East of the Sun.wav" WAVE
TRACK 01 AUDIO
TITLE "East of the Sun"
PERFORMER "Billie Holiday"
PREGAP 00:00:32
INDEX 01 00:00:00
TRACK 02 AUDIO
TITLE "Blue Moon"
PERFORMER "Billie Holiday"
INDEX 00 02:55:54
FILE "02 - Blue Moon.wav" WAVE
INDEX 01 00:00:00
TRACK 03 AUDIO
TITLE "You Go to My Head"
PERFORMER "Billie Holiday"
INDEX 00 03:30:28
FILE "03 - You Go to My Head.wav" WAVE
INDEX 01 00:00:00
TRACK 04 AUDIO
TITLE "You Turned the Tables on Me"
PERFORMER "Billie Holiday"
INDEX 00 02:56:06
FILE "04 - You Turned the Tables on Me.wav" WAVE
INDEX 01 00:00:00
TRACK 05 AUDIO
TITLE "Easy to Love"
PERFORMER "Billie Holiday"
INDEX 00 03:27:16
FILE "05 - Easy to Love.wav" WAVE
INDEX 01 00:00:00
TRACK 06 AUDIO
TITLE "These Foolish Things"
PERFORMER "Billie Holiday"
INDEX 00 03:00:35
FILE "06 - These Foolish Things.wav" WAVE
INDEX 01 00:00:00
TRACK 07 AUDIO
TITLE "I Only Have Eyes for You"
PERFORMER "Billie Holiday"
INDEX 00 03:33:73
FILE "07 - I Only Have Eyes for You.wav" WAVE
INDEX 01 00:00:00
TRACK 08 AUDIO
TITLE "Solitude"
PERFORMER "Billie Holiday"
INDEX 00 02:52:37
FILE "08 - Solitude.wav" WAVE
INDEX 01 00:00:00
TRACK 09 AUDIO
TITLE "Everything I Have Is Yours"
PERFORMER "Billie Holiday"
INDEX 00 03:30:12
FILE "09 - Everything I Have Is Yours.wav" WAVE
INDEX 01 00:00:00
TRACK 10 AUDIO
TITLE "Love for Sale"
PERFORMER "Billie Holiday"
INDEX 00 03:44:69
FILE "10 - Love for Sale.wav" WAVE
INDEX 01 00:00:00
TRACK 11 AUDIO
TITLE "Moonglow"
PERFORMER "Billie Holiday"
INDEX 00 02:57:04
FILE "11 - Moonglow.wav" WAVE
INDEX 01 00:00:00
TRACK 12 AUDIO
TITLE "Tenderly"
PERFORMER "Billie Holiday"
INDEX 00 02:59:12
FILE "12 - Tenderly.wav" WAVE
INDEX 01 00:00:00
TRACK 13 AUDIO
TITLE "If the Moon Turns Green"
PERFORMER "Billie Holiday"
INDEX 00 03:23:15
FILE "13 - If the Moon Turns Green.wav" WAVE
INDEX 01 00:00:00
TRACK 14 AUDIO
TITLE "Remember?"
PERFORMER "Billie Holiday"
INDEX 00 02:45:73
FILE "14 - Remember.wav" WAVE
INDEX 01 00:00:00
TRACK 15 AUDIO
TITLE "Autumn in New York"
PERFORMER "Billie Holiday"
INDEX 00 02:35:49
FILE "15 - Autumn in New York.wav" WAVE
INDEX 01 00:00:00
TRACK 16 AUDIO
TITLE "My Man"
PERFORMER "Billie Holiday"
INDEX 00 03:51:45
FILE "16 - My Man.wav" WAVE
INDEX 01 00:00:00
TRACK 17 AUDIO
TITLE "Lover, Come Back to Me"
PERFORMER "Billie Holiday"
INDEX 00 02:37:14
FILE "17 - Lover, Come Back to Me.wav" WAVE
INDEX 01 00:00:00
TRACK 18 AUDIO
TITLE "Stormy Weather"
PERFORMER "Billie Holiday"
INDEX 00 03:35:24
FILE "18 - Stormy Weather.wav" WAVE
INDEX 01 00:00:00
TRACK 19 AUDIO
TITLE "Yesterdays"
PERFORMER "Billie Holiday"
INDEX 00 03:41:44
FILE "19 - Yesterdays.wav" WAVE
INDEX 01 00:00:00
TRACK 20 AUDIO
TITLE "He's Funny That Way"
PERFORMER "Billie Holiday"
INDEX 00 02:48:67
FILE "20 - He's Funny That Way.wav" WAVE
INDEX 01 00:00:00
TRACK 21 AUDIO
TITLE "I Can't Face the Music"
PERFORMER "Billie Holiday"
INDEX 00 03:11:35
FILE "21 - I Can't Face the Music.wav" WAVE
INDEX 01 00:00:00
 
Отчет CUETools
[CUETools log; Date: 26.05.2018 21:53:14; Version: 2.1.5]
Pregap length 00:00:32.
[CTDB TOCID: wNkJNQVZEvQX9c1bZJG6IPO_A.8-] found.
Track | CTDB Status
1 | (2/2) Accurately ripped
2 | (2/2) Accurately ripped
3 | (2/2) Accurately ripped
4 | (2/2) Accurately ripped
5 | (2/2) Accurately ripped
6 | (2/2) Accurately ripped
7 | (2/2) Accurately ripped
8 | (2/2) Accurately ripped
9 | (2/2) Accurately ripped
10 | (2/2) Accurately ripped
11 | (2/2) Accurately ripped
12 | (2/2) Accurately ripped
13 | (2/2) Accurately ripped
14 | (2/2) Accurately ripped
15 | (2/2) Accurately ripped
16 | (2/2) Accurately ripped
17 | (2/2) Accurately ripped
18 | (2/2) Accurately ripped
19 | (2/2) Accurately ripped
20 | (2/2) Accurately ripped
21 | (2/2) Accurately ripped
[AccurateRip ID: 00335368-0312c85b-400fe715] found.
Track [ CRC | V2 ] Status
01 [d71fdd9a|41b17ac2] (0+1/1) Accurately ripped
02 [42637889|06778027] (0+1/1) Accurately ripped
03 [3cc91ad5|c7ddd716] (0+1/1) Accurately ripped
04 [18ade86d|c9ab419d] (0+1/1) Accurately ripped
05 [92f10fd9|e72b7b27] (0+1/1) Accurately ripped
06 [b67c9a58|22176243] (0+1/1) Accurately ripped
07 [7bb81005|fbc4304e] (0+1/1) Accurately ripped
08 [30981f8b|2240a9cb] (0+1/1) Accurately ripped
09 [6a710215|4a11c5c8] (0+1/1) Accurately ripped
10 [9fe05a33|4cbf20c6] (0+1/1) Accurately ripped
11 [b5ccef19|682e61e8] (0+1/1) Accurately ripped
12 [baf3258d|aaf78afb] (0+1/1) Accurately ripped
13 [266a8472|751fd8ec] (0+1/1) Accurately ripped
14 [279d8bc4|464f42ba] (0+1/1) Accurately ripped
15 [9defba4a|5b629542] (0+1/1) Accurately ripped
16 [f5ab3986|801ada73] (0+1/1) Accurately ripped
17 [3cd35793|32730991] (0+1/1) Accurately ripped
18 [6dd20fdd|7fe219e5] (0+1/1) Accurately ripped
19 [07d4de3c|ec2e508d] (0+1/1) Accurately ripped
20 [b109730b|919e4f4a] (0+1/1) Accurately ripped
21 [eef143d0|0842f18b] (0+1/1) Accurately ripped
Track Peak [ CRC32 ] [W/O NULL] [ LOG ]
-- 100,0 [C68B4E6D] [163829C1]
01 78,8 [2423D9B0] [6B9A52B8] CRC32
02 88,6 [E99A9210] [79DB0AE3] CRC32
03 85,5 [0F099081] [911BC63C] CRC32
04 85,6 [7EE5CF77] [93642ACD] CRC32
05 81,5 [3059670F] [407468DC] CRC32
06 83,1 [03724C2C] [28D2A8F9] CRC32
07 87,7 [693A08E7] [F97AD879] CRC32
08 79,5 [D17D7C5B] [C21477D5] CRC32
09 88,6 [1130C562] [15FA31DD] CRC32
10 88,6 [79D5E32F] [DA6D979A] CRC32
11 87,0 [F49A2D17] [79A76EBD] CRC32
12 84,6 [B945AA96] [4C54512F] CRC32
13 86,3 [4FD16F4F] [AA2E987C] CRC32
14 84,6 [81235609] [7143AD39] CRC32
15 79,6 [E4894A24] [047ECF0C] CRC32
16 100,0 [DA043E5C] [559FA2B1] CRC32
17 83,5 [78416F31] [2D468CAD] CRC32
18 94,9 [2AF24168] [F07242C4] CRC32
19 94,9 [ECAC82B2] [7F8E20E3] CRC32
20 94,9 [8A0CE083] [5652F0B1] CRC32
21 94,9 [25471F6C] [93A70AB9] CRC32
 
AllMusic Review by arwulf arwulf
Billie Holiday's recording career can be viewed in three distinct phases. The singer's evolution begins with the Vocalion/OKeh/Columbia years, steadily maturing throughout the Commodore, Decca, and latter-day Columbia sessions, then ripening into music of incredible poignancy as she recorded almost exclusively with Norman Granz for his Clef and Verve labels during the 1950s. The material reissued on this disc, recorded during the spring and summer of 1952, presents Lady Day in full bloom. There is within each of these songs a powerful elegance that is both meditative and intoxicating. Here are the slow love songs, more relaxed than ever before, with magical turns of phrasing that rise above the band like smoke in the air. When the tempo picks up, as in the old Busby Berkeley number "I Only Have Eyes for You," Billie's trustworthy trumpeting pal Charlie Shavers injects a bit of mustard into the mix. But most of the material here is languid and the overall effect is that of a jazz lieder recital where songs are savored rather than being spooled out in haste. While most of the recordings conform to the three or three-and-a-half-minute range that had been dictated for years by the 10" 78-rpm record, "Everything I Have Is Yours" and "Autumn in New York" approach the four-minute mark, anticipating the emergence of the LP, a development that would allow jazz musicians to stretch out like never before. And "stretching out" is exactly what these people are doing as they carefully render these 21 songs of love and heartbreak.
The Chronological Classics на трекере
Список имеющихся на трекере lossless раздач лейбла "The Chronological Classics".
Скачивание доступно после регистрации!!
Приватный:
Нет (DHT включён)
Размер:
153.61 Мб (161,068,633 байт) » файлов: 28
Участники:
0 раздают, 0 качают (0 участников всего)
Внешние участники:
8 раздают, 2 качают (10 участников всего) [ Обновить ]
07:26
10
Нет комментариев. Ваш будет первым!