Поиск

(Vocal Jazz, Bossa Nova) Eliane Elias - I Thought About You (A Tribute To Chet Baker) - 2013, FLAC (tracks+.cue), lossless

(Vocal Jazz, Bossa Nova) Eliane Elias - I Thought About You (A Tribute To Chet Baker) - 2013, FLAC (tracks+.cue), lossless
Треклист:
Eliane Elias – I Thought About You (A Tribute To Chet Baker)
Жанр: Vocal Jazz, Bossa Nova
Год издания: 2013
Издатель (лейбл): Concord Jazz
Номер по каталогу: CJA-34191-02
Аудиокодек: FLAC (*.flac)
Тип рипа: tracks+.cue
Битрейт аудио: lossless
Продолжительность: 54:48
Источник (релизер): tiburon
Наличие сканов в содержимом раздачи: да
Треклист:
01. I Thought About You (4:56)
02. There Will Never Be Another You (4:43)
03. This Can't Be Love (3:53)
04. Embraceable You (5:05)
05. That Old Feeling (3:53)
06. Everything Depends On You (3:38)
07. I've Never Been In Love Before (3:54)
08. Let's Get Lost (4:19)
09. You Don't Know What Love Is (5:13)
10. Blue Room (2:11)
11. Just Friends (3:30)
12. Girl Talk (3:50)
13. Just In Time (2:37)
14. I Get Along Very Well Without You (3:05)
Personnel:
Eliane Elias - vo, p
Randy Brecker - tp, flgn
Steve Cardenas - el-g
Oscar Castro-Neves - ac-g
Marc Johnson - b
Victor Lewis - d
Rafael Barata - d
Marivaldo Dos Santos - perc
 
 
Лог создания рипа
EAC extraction logfile from 14. June 2013, 18:20 for CD
Eliane Elias / I Thought About You (A Tribute To Chet Baker)
Used drive : TSSTcorpCD/DVDW SH-S182D Adapter: 5 ID: 0
Read mode : Secure with NO C2, accurate stream, disable cache
Read offset correction : 6
Overread into Lead-In and Lead-Out : No
Used output format : C:\Programs\EAC\Encoders\Flac\flac.exe (User Defined Encoder)
32 kBit/s
Additional command line options : -V -8 -T "artist=%a" -T "title=%t" -T "album=%g" -T "date=%y" -T "tracknumber=%n" -T "genre=%m" %s -T"comment=EAC (secure mode) / FLAC 1.1.4 - by manfred"
Other options :
Fill up missing offset samples with silence : Yes
Delete leading and trailing silent blocks : No
Installed external ASPI interface
Track 1
Filename D:\Music\Eliane Elias - I Thought About You - A Tribute To Chet Baker (2013) [FLAC]\01 - I Thought About You.wav
Pre-gap length 0:00:02.00
Peak level 97.3 %
Track quality 99.9 %
Test CRC 909C3442
Copy CRC 909C3442
Copy OK
Track 2
Filename D:\Music\Eliane Elias - I Thought About You - A Tribute To Chet Baker (2013) [FLAC]\02 - There Will Never Be Another You.wav
Peak level 98.4 %
Track quality 100.0 %
Test CRC DAF33D70
Copy CRC DAF33D70
Copy OK
Track 3
Filename D:\Music\Eliane Elias - I Thought About You - A Tribute To Chet Baker (2013) [FLAC]\03 - This Can't Be Love.wav
Peak level 97.3 %
Track quality 100.0 %
Test CRC 9674F24E
Copy CRC 9674F24E
Copy OK
Track 4
Filename D:\Music\Eliane Elias - I Thought About You - A Tribute To Chet Baker (2013) [FLAC]\04 - Embraceable You.wav
Peak level 97.8 %
Track quality 100.0 %
Test CRC 6433BE60
Copy CRC 6433BE60
Copy OK
Track 5
Filename D:\Music\Eliane Elias - I Thought About You - A Tribute To Chet Baker (2013) [FLAC]\05 - That Old Feeling.wav
Peak level 97.7 %
Track quality 99.9 %
Test CRC 7BF58459
Copy CRC 7BF58459
Copy OK
Track 6
Filename D:\Music\Eliane Elias - I Thought About You - A Tribute To Chet Baker (2013) [FLAC]\06 - Everything Depends On You.wav
Peak level 88.2 %
Track quality 100.0 %
Test CRC A1282963
Copy CRC A1282963
Copy OK
Track 7
Filename D:\Music\Eliane Elias - I Thought About You - A Tribute To Chet Baker (2013) [FLAC]\07 - I've Never Been In Love Before.wav
Peak level 97.3 %
Track quality 100.0 %
Test CRC 221BB7F3
Copy CRC 221BB7F3
Copy OK
Track 8
Filename D:\Music\Eliane Elias - I Thought About You - A Tribute To Chet Baker (2013) [FLAC]\08 - Let's Get Lost.wav
Peak level 98.1 %
Track quality 99.9 %
Test CRC 01F35491
Copy CRC 01F35491
Copy OK
Track 9
Filename D:\Music\Eliane Elias - I Thought About You - A Tribute To Chet Baker (2013) [FLAC]\09 - You Don't Know What Love Is.wav
Peak level 97.3 %
Track quality 100.0 %
Test CRC 393CFFA7
Copy CRC 393CFFA7
Copy OK
Track 10
Filename D:\Music\Eliane Elias - I Thought About You - A Tribute To Chet Baker (2013) [FLAC]\10 - Blue Room.wav
Peak level 97.4 %
Track quality 100.0 %
Test CRC 1B1208DE
Copy CRC 1B1208DE
Copy OK
Track 11
Filename D:\Music\Eliane Elias - I Thought About You - A Tribute To Chet Baker (2013) [FLAC]\11 - Just Friends.wav
Peak level 97.5 %
Track quality 100.0 %
Test CRC FA0CDDEA
Copy CRC FA0CDDEA
Copy OK
Track 12
Filename D:\Music\Eliane Elias - I Thought About You - A Tribute To Chet Baker (2013) [FLAC]\12 - Girl Talk.wav
Peak level 97.6 %
Track quality 100.0 %
Test CRC 61061065
Copy CRC 61061065
Copy OK
Track 13
Filename D:\Music\Eliane Elias - I Thought About You - A Tribute To Chet Baker (2013) [FLAC]\13 - Just In Time.wav
Peak level 97.3 %
Track quality 99.9 %
Test CRC 3CECF795
Copy CRC 3CECF795
Copy OK
Track 14
Filename D:\Music\Eliane Elias - I Thought About You - A Tribute To Chet Baker (2013) [FLAC]\14 - I Get Along Very Well Without You.wav
Peak level 97.2 %
Track quality 100.0 %
Test CRC 253A6461
Copy CRC 253A6461
Copy OK
No errors occured
End of status report
 
Содержание индексной карты (.CUE)
REM GENRE Jazz
REM DATE 2013
REM DISCID BB0CD70E
REM COMMENT "ExactAudioCopy v0.95b4"
PERFORMER "Eliane Elias"
TITLE "I Thought About You (A Tribute To Chet Baker)"
FILE "01 - I Thought About You.wav" WAVE
TRACK 01 AUDIO
TITLE "I Thought About You"
PERFORMER "Eliane Elias"
FLAGS DCP
INDEX 01 00:00:00
FILE "02 - There Will Never Be Another You.wav" WAVE
TRACK 02 AUDIO
TITLE "There Will Never Be Another You"
PERFORMER "Eliane Elias"
FLAGS DCP
INDEX 01 00:00:00
FILE "03 - This Can't Be Love.wav" WAVE
TRACK 03 AUDIO
TITLE "This Can't Be Love"
PERFORMER "Eliane Elias"
FLAGS DCP
INDEX 01 00:00:00
FILE "04 - Embraceable You.wav" WAVE
TRACK 04 AUDIO
TITLE "Embraceable You"
PERFORMER "Eliane Elias"
FLAGS DCP
INDEX 01 00:00:00
FILE "05 - That Old Feeling.wav" WAVE
TRACK 05 AUDIO
TITLE "That Old Feeling"
PERFORMER "Eliane Elias"
FLAGS DCP
INDEX 01 00:00:00
FILE "06 - Everything Depends On You.wav" WAVE
TRACK 06 AUDIO
TITLE "Everything Depends On You"
PERFORMER "Eliane Elias"
FLAGS DCP
INDEX 01 00:00:00
FILE "07 - I've Never Been In Love Before.wav" WAVE
TRACK 07 AUDIO
TITLE "I've Never Been In Love Before"
PERFORMER "Eliane Elias"
FLAGS DCP
INDEX 01 00:00:00
FILE "08 - Let's Get Lost.wav" WAVE
TRACK 08 AUDIO
TITLE "Let's Get Lost"
PERFORMER "Eliane Elias"
FLAGS DCP
INDEX 01 00:00:00
FILE "09 - You Don't Know What Love Is.wav" WAVE
TRACK 09 AUDIO
TITLE "You Don't Know What Love Is"
PERFORMER "Eliane Elias"
FLAGS DCP
INDEX 01 00:00:00
FILE "10 - Blue Room.wav" WAVE
TRACK 10 AUDIO
TITLE "Blue Room"
PERFORMER "Eliane Elias"
FLAGS DCP
INDEX 01 00:00:00
FILE "11 - Just Friends.wav" WAVE
TRACK 11 AUDIO
TITLE "Just Friends"
PERFORMER "Eliane Elias"
FLAGS DCP
INDEX 01 00:00:00
FILE "12 - Girl Talk.wav" WAVE
TRACK 12 AUDIO
TITLE "Girl Talk"
PERFORMER "Eliane Elias"
FLAGS DCP
INDEX 01 00:00:00
FILE "13 - Just In Time.wav" WAVE
TRACK 13 AUDIO
TITLE "Just In Time"
PERFORMER "Eliane Elias"
FLAGS DCP
INDEX 01 00:00:00
FILE "14 - I Get Along Very Well Without You.wav" WAVE
TRACK 14 AUDIO
TITLE "I Get Along Very Well Without You"
PERFORMER "Eliane Elias"
FLAGS DCP
INDEX 01 00:00:00
11:25
419
Нет комментариев. Ваш будет первым!