Поиск

(Latin Jazz, Salsa) Willie Rosario - El Fabuloso y Fantastico - 1964 (1998), FLAC (tracks+.cue), lossless

(Latin Jazz, Salsa) Willie Rosario - El Fabuloso y Fantastico - 1964 (1998), FLAC (tracks+.cue), lossless
Треклист:
Willie Rosario - El Fabuloso y Fantastico
Жанр: Latin Jazz, Salsa
Страна-производитель диска: США
Год издания: 1964 (1998)
Издатель (лейбл): Neliz Records
Номер по каталогу: NCD1564
Страна: Пуэрто-Рико
Аудиокодек: FLAC (*.flac)
Тип рипа: tracks+.cue
Битрейт аудио: lossless
Продолжительность: 34:43
Источник (релизер): tobb3 (what)
Наличие сканов в содержимом раздачи: да
Треклист:
01. Wobbly Blues (2:44)
02. Los Generales de la Capital (2:43)
03. Quedate en Tu Tierra (2:58)
04. A Villa Palmeras (2:58)
05. Nos Engano la Vida (2:39)
06. 'Yayi's' Instant Mambo (2:57)
07. Yenye (2:42)
08. Me Voy Para el Bonche (2:56)
09. Triunfo el Amor (3:08)
10. El Charlatan (3:06)
11. Mayimbe (3:00)
12. Bailan Guaguanco (2:52)
 
Лог создания рипа
Exact Audio Copy V0.99 prebeta 5 from 4. May 2009
EAC extraction logfile from 26. March 2010, 22:54
Willie Rosario / Fabuloso y Fantastico
Used drive : PLEXTOR DVDR PX-880SA Adapter: 0 ID: 0
Read mode : Secure
Utilize accurate stream : Yes
Defeat audio cache : Yes
Make use of C2 pointers : No
Read offset correction : 6
Overread into Lead-In and Lead-Out : No
Fill up missing offset samples with silence : Yes
Delete leading and trailing silent blocks : No
Null samples used in CRC calculations : Yes
Used interface : Native Win32 interface for Win NT & 2000
Gap handling : Appended to previous track
Used output format : User Defined Encoder
Selected bitrate : 896 kBit/s
Quality : High
Add ID3 tag : No
Command line compressor : C:\Program Files (x86)\Exact Audio Copy\Flac\flac.exe
Additional command line options : -8 -V -T "ARTIST=%a" -T "TITLE=%t" -T "ALBUM=%g" -T "DATE=%y" -T "TRACKNUMBER=%n" -T "TOTALTRACKS=%x" -T "GENRE=%m" -T "ALBUM ARTIST=%v" -T "ALBUMARTIST=%v" -T "COMMENT=EAC V0.99 prebeta 5, Secure Mode, Test & Copy, Accurat
TOC of the extracted CD
Track | Start | Length | Start sector | End sector
---------------------------------------------------------
1 | 0:00.00 | 2:43.40 | 0 | 12264
2 | 2:43.40 | 2:42.70 | 12265 | 24484
3 | 5:26.35 | 2:58.07 | 24485 | 37841
4 | 8:24.42 | 2:57.58 | 37842 | 51174
5 | 11:22.25 | 2:39.22 | 51175 | 63121
6 | 14:01.47 | 2:57.03 | 63122 | 76399
7 | 16:58.50 | 2:41.40 | 76400 | 88514
8 | 19:40.15 | 2:56.17 | 88515 | 101731
9 | 22:36.32 | 3:08.13 | 101732 | 115844
10 | 25:44.45 | 3:05.72 | 115845 | 129791
11 | 28:50.42 | 2:59.48 | 129792 | 143264
12 | 31:50.15 | 2:52.37 | 143265 | 156201
Track 1
Filename C:\FLAC EAC\01 - Wobbly Blues.wav
Pre-gap length 0:00:02.00
Peak level 97.9 %
Track quality 100.0 %
Test CRC F6AEE074
Copy CRC F6AEE074
Track not present in AccurateRip database
Copy OK
Track 2
Filename C:\FLAC EAC\02 - Los Generales De La Capital.wav
Pre-gap length 0:00:03.93
Peak level 98.3 %
Track quality 100.0 %
Test CRC F1F91573
Copy CRC F1F91573
Track not present in AccurateRip database
Copy OK
Track 3
Filename C:\FLAC EAC\03 - Quedate En Tu Tierra.wav
Pre-gap length 0:00:03.60
Peak level 91.4 %
Track quality 100.0 %
Test CRC B11E9EA3
Copy CRC B11E9EA3
Track not present in AccurateRip database
Copy OK
Track 4
Filename C:\FLAC EAC\04 - A Villa Palmeras.wav
Pre-gap length 0:00:03.16
Peak level 91.8 %
Track quality 100.0 %
Test CRC 01A54D55
Copy CRC 01A54D55
Track not present in AccurateRip database
Copy OK
Track 5
Filename C:\FLAC EAC\05 - Nos Engano La Vida.wav
Pre-gap length 0:00:03.37
Peak level 85.7 %
Track quality 100.0 %
Test CRC 24ED6DA8
Copy CRC 24ED6DA8
Track not present in AccurateRip database
Copy OK
Track 6
Filename C:\FLAC EAC\06 - Yayi's Instant Mambo.wav
Pre-gap length 0:00:04.36
Peak level 73.6 %
Track quality 100.0 %
Test CRC C66C9C79
Copy CRC C66C9C79
Track not present in AccurateRip database
Copy OK
Track 7
Filename C:\FLAC EAC\07 - Yenye.wav
Pre-gap length 0:00:01.97
Peak level 100.0 %
Track quality 100.0 %
Test CRC D8F604B0
Copy CRC D8F604B0
Track not present in AccurateRip database
Copy OK
Track 8
Filename C:\FLAC EAC\08 - Me Voy Para El Bonche.wav
Pre-gap length 0:00:03.50
Peak level 99.1 %
Track quality 100.0 %
Test CRC 42DE6D57
Copy CRC 42DE6D57
Track not present in AccurateRip database
Copy OK
Track 9
Filename C:\FLAC EAC\09 - Triunfo El Amor.wav
Pre-gap length 0:00:02.40
Peak level 100.0 %
Track quality 100.0 %
Test CRC D5DC50D2
Copy CRC D5DC50D2
Track not present in AccurateRip database
Copy OK
Track 10
Filename C:\FLAC EAC\10 - El Charlatan.wav
Pre-gap length 0:00:04.13
Peak level 90.7 %
Track quality 99.9 %
Test CRC EA28D343
Copy CRC EA28D343
Track not present in AccurateRip database
Copy OK
Track 11
Filename C:\FLAC EAC\11 - Mayimbe.wav
Pre-gap length 0:00:04.46
Peak level 86.3 %
Track quality 99.9 %
Test CRC E0F89E5E
Copy CRC E0F89E5E
Track not present in AccurateRip database
Copy OK
Track 12
Filename C:\FLAC EAC\12 - Bailan Guaguanco.wav
Pre-gap length 0:00:03.30
Peak level 87.5 %
Track quality 100.0 %
Test CRC DE276B62
Copy CRC DE276B62
Track not present in AccurateRip database
Copy OK
None of the tracks are present in the AccurateRip database
No errors occurred
End of status report
 
Содержание индексной карты (.CUE)
REM GENRE Latin
REM DATE 1964
REM DISCID 9108220C
REM COMMENT "ExactAudioCopy v0.99pb5"
PERFORMER "Willie Rosario"
TITLE "Fabuloso y Fantastico"
FILE "01 - Wobbly Blues.wav" WAVE
TRACK 01 AUDIO
TITLE "Wobbly Blues"
PERFORMER "Willie Rosario"
INDEX 01 00:00:00
TRACK 02 AUDIO
TITLE "Los Generales de la Capital"
PERFORMER "Willie Rosario"
INDEX 00 02:39:45
FILE "02 - Los Generales de la Capital.wav" WAVE
INDEX 01 00:00:00
TRACK 03 AUDIO
TITLE "Quedate en Tu Tierra"
PERFORMER "Willie Rosario"
INDEX 00 02:39:25
FILE "03 - Quedate en Tu Tierra.wav" WAVE
INDEX 01 00:00:00
TRACK 04 AUDIO
TITLE "A Villa Palmeras"
PERFORMER "Willie Rosario"
INDEX 00 02:54:70
FILE "04 - A Villa Palmeras.wav" WAVE
INDEX 01 00:00:00
TRACK 05 AUDIO
TITLE "Nos Engano la Vida"
PERFORMER "Willie Rosario"
INDEX 00 02:54:30
FILE "05 - Nos Engano la Vida.wav" WAVE
INDEX 01 00:00:00
TRACK 06 AUDIO
TITLE "'Yayi's' Instant Mambo"
PERFORMER "Willie Rosario"
INDEX 00 02:34:70
FILE "06 - 'Yayi's' Instant Mambo.wav" WAVE
INDEX 01 00:00:00
TRACK 07 AUDIO
TITLE "Yenye"
PERFORMER "Willie Rosario"
INDEX 00 02:55:05
FILE "07 - Yenye.wav" WAVE
INDEX 01 00:00:00
TRACK 08 AUDIO
TITLE "Me Voy Para el Bonche"
PERFORMER "Willie Rosario"
INDEX 00 02:38:02
FILE "08 - Me Voy Para el Bonche.wav" WAVE
INDEX 01 00:00:00
TRACK 09 AUDIO
TITLE "Triunfo el Amor"
PERFORMER "Willie Rosario"
INDEX 00 02:53:62
FILE "09 - Triunfo el Amor.wav" WAVE
INDEX 01 00:00:00
TRACK 10 AUDIO
TITLE "El Charlatan"
PERFORMER "Willie Rosario"
INDEX 00 03:04:03
FILE "10 - El Charlatan.wav" WAVE
INDEX 01 00:00:00
TRACK 11 AUDIO
TITLE "Mayimbe"
PERFORMER "Willie Rosario"
INDEX 00 03:01:37
FILE "11 - Mayimbe.wav" WAVE
INDEX 01 00:00:00
TRACK 12 AUDIO
TITLE "Bailan Guaguanco"
PERFORMER "Willie Rosario"
INDEX 00 02:56:25
FILE "12 - Bailan Guaguanco.wav" WAVE
INDEX 01 00:00:00
 
Отчет CUETools
[CUETools log; Date: 15.06.2013 3:13:04; Version: 2.1.4]
[CTDB TOCID: AZ1a35t7koCJPlEHVCrFZqiurZQ-] found.
Track | CTDB Status
1 | (2/2) Accurately ripped
2 | (2/2) Accurately ripped
3 | (2/2) Accurately ripped
4 | (2/2) Accurately ripped
5 | (2/2) Accurately ripped
6 | (2/2) Accurately ripped
7 | (2/2) Accurately ripped
8 | (2/2) Accurately ripped
9 | (2/2) Accurately ripped
10 | (2/2) Accurately ripped
11 | (2/2) Accurately ripped
12 | (2/2) Accurately ripped
[AccurateRip ID: 000f44c0-008f1a85-9108220c] disk not present in database.
Track Peak [ CRC32 ] [W/O NULL] [ LOG ]
-- 100,0 [71E5A65F] [D5B86721]
01 97,9 [F6AEE074] [C2513084] CRC32
02 98,3 [F1F91573] [C292A919] CRC32
03 91,4 [B11E9EA3] [D133ECF8] CRC32
04 91,8 [01A54D55] [B57636BD] CRC32
05 85,7 [24ED6DA8] [D70BEFE3] CRC32
06 73,6 [C66C9C79] [6A59D83A] CRC32
07 100,0 [D8F604B0] [E189A70D] CRC32
08 99,1 [42DE6D57] [A6741151] CRC32
09 100,0 [D5DC50D2] [D4F20902] CRC32
10 90,7 [EA28D343] [FBBC0CE4] CRC32
11 86,3 [E0F89E5E] [B5091601] CRC32
12 87,5 [DE276B62] [1DFB9326] CRC32
 
Об альбоме (сборнике)
Willie Rosario's 1964 LP "Fabuloso Y Fantastico", served as a prelude of what the future held in store for the "King Of Swing". Frankie Rodrìguez was the lead vocalist, and future bassist great, Bobby Valentìn, played the trumpet along with Tony Cofresì, also on the trumpet. The themes; "Los Generales De La Salsa", "A Villa Palmeras", "Nos Engañò La Vida",and "Bailan Güagüancò", are fine examples of the nice and tight rythm that was being developed by Willie's band, just three years before he added a bass saxophone that gave the band its now legendary sound. Willie Rosario, one of "Salsa's" great masters.
-- by Carl James Martinez
11:24
235
Нет комментариев. Ваш будет первым!