Поиск

(Vocal Jazz, Bossa Nova) Astrud Gilberto - The Shadow Of Your Smile - 1965, FLAC (image+.cue), lossless

(Vocal Jazz, Bossa Nova) Astrud Gilberto - The Shadow Of Your Smile - 1965, FLAC (image+.cue), lossless
Треклист:
Astrud Gilberto – The Shadow Of Your Smile
Жанр: Vocal Jazz, Bossa Nova
Год издания диска: 1965
Аудиокодек: FLAC (*.flac)
Тип рипа: image+.cue
Битрейт аудио: lossless
Продолжительность: 25:35
Источник: демоноид
Наличие сканов в содержимом раздачи: нет
Треклист:
01. The Shadow Of Your Smile (2:32)
02. Aruanda (2:31)
03. Manha De Carnaval (1:58)
04. Fly Me To The Moon (2:23)
05. The Gentle Rain (2:26)
06. Non-Stop To Brazil (2:28)
07. O Ganso (2:10)
08. Who Can I Turn To (2:11)
09. Day By Day (2:09)
10. Tristeza (2:23)
11. Funny World (2:25)
Rec.: RCA Studios, New York City, February 4, 1965.
 
 
Лог создания рипа
Exact Audio Copy V1.0 beta 3 from 29. August 2011
EAC extraction logfile from 7. March 2012, 22:51
Astrud Gilberto / The Shadow Of Your Smile
Used drive : BENQ DVD DD DW1640 Adapter: 0 ID: 1
Read mode : Secure
Utilize accurate stream : Yes
Defeat audio cache : Yes
Make use of C2 pointers : No
Read offset correction : 618
Overread into Lead-In and Lead-Out : No
Fill up missing offset samples with silence : Yes
Delete leading and trailing silent blocks : No
Null samples used in CRC calculations : Yes
Used interface : Native Win32 interface for Win NT & 2000
Used output format : Internal WAV Routines
Sample format : 44.100 Hz; 16 Bit; Stereo
TOC of the extracted CD
Track | Start | Length | Start sector | End sector
---------------------------------------------------------
1 | 0:00.00 | 2:31.43 | 0 | 11367
2 | 2:31.43 | 2:30.72 | 11368 | 22689
3 | 5:02.40 | 1:57.60 | 22690 | 31524
4 | 7:00.25 | 2:22.43 | 31525 | 42217
5 | 9:22.68 | 2:26.05 | 42218 | 53172
6 | 11:48.73 | 2:27.60 | 53173 | 64257
7 | 14:16.58 | 2:09.45 | 64258 | 73977
8 | 16:26.28 | 2:10.52 | 73978 | 83779
9 | 18:37.05 | 2:09.25 | 83780 | 93479
10 | 20:46.30 | 2:23.05 | 93480 | 104209
11 | 23:09.35 | 2:25.12 | 104210 | 115096
Range status and errors
Selected range
Filename C:\My Music\Astrud Gilberto - The Shadow Of Your Smile\Astrud Gilberto - The Shadow Of Your Smile.wav
Peak level 100.0 %
Extraction speed 7.0 X
Range quality 100.0 %
Copy CRC 982438D3
Copy OK
No errors occurred
End of status report
---- CUETools DB Plugin V2.1.3
[CTDB TOCID: NgkZ2ATuw4_bq_H8lEFXaT5F9Y8-] disk not present in database, Submit result: NgkZ2ATuw4_bq_H8lEFXaT5F9Y8- has been uploaded
 
Содержание индексной карты (.CUE)
REM GENRE Jazz
REM DATE 1965
REM DISCID 8805FE0B
REM COMMENT "ExactAudioCopy v1.0b3"
PERFORMER "Astrud Gilberto"
TITLE "The Shadow Of Your Smile"
FILE "Astrud Gilberto - The Shadow Of Your Smile.flac" WAVE
TRACK 01 AUDIO
TITLE "The Shadow Of Your Smile"
PERFORMER "Astrud Gilberto"
INDEX 01 00:00:00
TRACK 02 AUDIO
TITLE "Aruanda"
PERFORMER "Astrud Gilberto"
FLAGS DCP
INDEX 00 02:29:15
INDEX 01 02:31:43
TRACK 03 AUDIO
TITLE "Manha De Carnaval"
PERFORMER "Astrud Gilberto"
FLAGS DCP
INDEX 00 05:01:05
INDEX 01 05:02:40
TRACK 04 AUDIO
TITLE "Fly Me To The Moon"
PERFORMER "Astrud Gilberto"
FLAGS DCP
INDEX 00 06:57:58
INDEX 01 07:00:25
TRACK 05 AUDIO
TITLE "The Gentle Rain"
PERFORMER "Astrud Gilberto"
FLAGS DCP
INDEX 00 09:19:73
INDEX 01 09:22:68
TRACK 06 AUDIO
TITLE "Non-Stop To Brazil"
PERFORMER "Astrud Gilberto"
FLAGS DCP
INDEX 00 11:46:23
INDEX 01 11:48:73
TRACK 07 AUDIO
TITLE "O Ganso"
PERFORMER "Astrud Gilberto"
FLAGS DCP
INDEX 00 14:14:58
INDEX 01 14:16:58
TRACK 08 AUDIO
TITLE "Who Can I Turn To"
PERFORMER "Astrud Gilberto"
FLAGS DCP
INDEX 00 16:22:70
INDEX 01 16:26:28
TRACK 09 AUDIO
TITLE "Day By Day"
PERFORMER "Astrud Gilberto"
FLAGS DCP
INDEX 00 18:34:38
INDEX 01 18:37:05
TRACK 10 AUDIO
TITLE "Tristeza"
PERFORMER "Astrud Gilberto"
FLAGS DCP
INDEX 00 20:44:52
INDEX 01 20:46:30
TRACK 11 AUDIO
TITLE "Funny World"
PERFORMER "Astrud Gilberto"
FLAGS DCP
INDEX 00 23:07:70
INDEX 01 23:09:35
 
AccurateRip
[CUETools log; Date: 09.03.2012 2:25:19; Version: 2.0.9]
[CTDB TOCID: NgkZ2ATuw4_bq_H8lEFXaT5F9Y8-] found.
[ CTDBID ] Status
[5644a3a7] (1/1) Accurately ripped
[AccurateRip ID: 000a9de1-005ba0df-8805fe0b] found.
Track [ CRC ] Status
01 [9e19a492] (08/10) Accurately ripped
02 [bd51bbde] (08/10) Accurately ripped
03 [c905e100] (08/10) Accurately ripped
04 [52288980] (08/10) Accurately ripped
05 [3da9c096] (08/10) Accurately ripped
06 [ecf5d132] (08/10) Accurately ripped
07 [47a3c9f6] (08/10) Accurately ripped
08 [e28ed984] (08/10) Accurately ripped
09 [b40cf517] (08/10) Accurately ripped
10 [53738c13] (08/10) Accurately ripped
11 [6382897b] (08/10) Accurately ripped
Offsetted by -1328:
01 [89ef7482] (02/10) Accurately ripped
02 [8e1afb1e] (02/10) Accurately ripped
03 [dec2a5b0] (02/10) Accurately ripped
04 [351eb4e0] (02/10) Accurately ripped
05 [49247066] (02/10) Accurately ripped
06 [2cb16fd2] (02/10) Accurately ripped
07 [a55fa786] (02/10) Accurately ripped
08 [1b7c5fb4] (02/10) Accurately ripped
09 [03b54947] (02/10) Accurately ripped
10 [b55f4c63] (02/10) Accurately ripped
11 [970634ab] (02/10) Accurately ripped
Track Peak [ CRC32 ] [W/O NULL] [ LOG ]
-- 99,9 [982438D3] [E90EFCA6] CRC32
01 99,9 [8D7D8D2A] [7AC20963]
02 99,9 [DDB2B80C] [D3E372C4]
03 99,9 [462F5791] [17A9D16A]
04 99,9 [CA08CDE1] [BD64346E]
05 99,9 [5ECD4320] [272CC35E]
06 99,9 [A579FC46] [0B67026B]
07 99,9 [C4F99392] [101903D7]
08 92,9 [4D278F76] [2CF91CEA]
09 94,5 [4A0382F0] [D50E9739]
10 99,9 [E7E4C5EC] [CC2E6DF8]
11 99,9 [178AED5D] [7431DC81]
 
 
Об альбоме
Limited European Edition with mini LP sleeve packaging (96KHZ - 24bit digital transfer). Three outstanding arrangers have produced a variety of orchestral settings that perfectly enhanced the vocalist and the songs: Joao Donato, Claus Ogerman and Don Sebesky. Astrud's voice is beautifully complemented by excellent Jazz soloists. Recorded in New York City at RCA Studios, Feb. 4, 1965 this album is not to be missed.
 
03:01
338
Нет комментариев. Ваш будет первым!