Поиск

(Latin Jazz) Miguel "Anga" Diaz - Echu Mingua - 2005, FLAC (tracks+.cue), lossless

(Latin Jazz) Miguel "Anga" Diaz - Echu Mingua - 2005, FLAC (tracks+.cue), lossless
•Miguel "Anga" Diaz - Echu Mingua•
Жанр: Latin Jazz
Год издания диска: 2005
Аудиокодек: FLAC (*.flac)
Тип рипа: tracks+.cue
Битрейт аудио: lossless
Продолжительность: 00:46:29
Источник (релизер): Pastafari Cubensis
Наличие сканов в содержимом раздачи: да
Треклист:
01. San Juan y Martinez 1:45
02. Rezos 4:09
03. Pueblo Nuevo 4:29
04. Tume Tume 2:55
05. A Love Supreme 5:49
06. Gandiga Mondongo Sandunga 5:31
07. Dracula Simon 2:42
08. Round Midnight 2:07
09. Jerry's Tune 0:54
10. Oda Maritima 4:44
11. Freeform 3:10
12. Conga Carnaval 5:25
13. Closing 2:42
 
Лог создания рипа
Exact Audio Copy V0.99 prebeta 4 from 23. January 2008
EAC extraction logfile from 17. September 2009, 23:39
Miguel "Angб" Dнaz / Echu Mingua
Used drive : TSSTcorpCDDVDW TS-H653N Adapter: 2 ID: 2
Read mode : Secure
Utilize accurate stream : Yes
Defeat audio cache : Yes
Make use of C2 pointers : No
Read offset correction : 6
Overread into Lead-In and Lead-Out : No
Fill up missing offset samples with silence : Yes
Delete leading and trailing silent blocks : No
Null samples used in CRC calculations : Yes
Used interface : Native Win32 interface for Win NT & 2000
Gap handling : Appended to previous track
Used output format : User Defined Encoder
Selected bitrate : 1024 kBit/s
Quality : High
Add ID3 tag : No
Command line compressor : C:\Program Files\FLAC -\flac.exe
Additional command line options : -5 -V -T "artist=%a" -T "title=%t" -T "album=%g" -T "date=%y" -T "tracknumber=%n" -T "genre=%m" -T comment="shared by pastafari cubensis" %s
TOC of the extracted CD
Track | Start | Length | Start sector | End sector
---------------------------------------------------------
1 | 0:00.00 | 1:45.71 | 0 | 7945
2 | 1:45.71 | 4:09.38 | 7946 | 26658
3 | 5:55.34 | 4:29.69 | 26659 | 46902
4 | 10:25.28 | 2:55.11 | 46903 | 60038
5 | 13:20.39 | 5:49.73 | 60039 | 86286
6 | 19:10.37 | 5:31.12 | 86287 | 111123
7 | 24:41.49 | 2:42.61 | 111124 | 123334
8 | 27:24.35 | 2:07.61 | 123335 | 132920
9 | 29:32.21 | 0:54.41 | 132921 | 137011
10 | 30:26.62 | 4:44.60 | 137012 | 158371
11 | 35:11.47 | 3:10.57 | 158372 | 172678
12 | 38:22.29 | 5:25.04 | 172679 | 197057
13 | 43:47.33 | 2:42.30 | 197058 | 209237
Track 1
Filename C:\CD_buffer\Miguel 'Angб' Dнaz - 2005 - Echu Mingua [FLAC]\01- San Juan y Martнnez.wav
Pre-gap length 0:00:02.00
Peak level 88.1 %
Track quality 100.0 %
Test CRC 1F0F7642
Copy CRC 1F0F7642
Accurately ripped (confidence 4) [210E6E1D]
Copy OK
Track 2
Filename C:\CD_buffer\Miguel 'Angб' Dнaz - 2005 - Echu Mingua [FLAC]\02- Rezos.wav
Peak level 100.0 %
Track quality 100.0 %
Test CRC CA72C87A
Copy CRC CA72C87A
Accurately ripped (confidence 5) [D1EDC97E]
Copy OK
Track 3
Filename C:\CD_buffer\Miguel 'Angб' Dнaz - 2005 - Echu Mingua [FLAC]\03- Pueblo Nuevo.wav
Peak level 100.0 %
Track quality 100.0 %
Test CRC D81F79BA
Copy CRC D81F79BA
Accurately ripped (confidence 5) [AC6D6BB6]
Copy OK
Track 4
Filename C:\CD_buffer\Miguel 'Angб' Dнaz - 2005 - Echu Mingua [FLAC]\04- Tumй Tumй.wav
Peak level 100.0 %
Track quality 100.0 %
Test CRC 0629C41B
Copy CRC 0629C41B
Accurately ripped (confidence 5) [0E18872F]
Copy OK
Track 5
Filename C:\CD_buffer\Miguel 'Angб' Dнaz - 2005 - Echu Mingua [FLAC]\05- A Love Supreme.wav
Peak level 100.0 %
Track quality 99.9 %
Test CRC 7812731C
Copy CRC 7812731C
Accurately ripped (confidence 5) [71BB222D]
Copy OK
Track 6
Filename C:\CD_buffer\Miguel 'Angб' Dнaz - 2005 - Echu Mingua [FLAC]\06- Gandinga mondongo sandunga.wav
Peak level 100.0 %
Track quality 100.0 %
Test CRC 291F3EE5
Copy CRC 291F3EE5
Accurately ripped (confidence 5) [A2DE381C]
Copy OK
Track 7
Filename C:\CD_buffer\Miguel 'Angб' Dнaz - 2005 - Echu Mingua [FLAC]\07- Dracula Simon.wav
Peak level 100.0 %
Track quality 100.0 %
Test CRC 108E0652
Copy CRC 108E0652
Accurately ripped (confidence 5) [66BD952E]
Copy OK
Track 8
Filename C:\CD_buffer\Miguel 'Angб' Dнaz - 2005 - Echu Mingua [FLAC]\08- Round Midnight.wav
Peak level 96.1 %
Track quality 99.9 %
Test CRC 0171674D
Copy CRC 0171674D
Accurately ripped (confidence 5) [0979B391]
Copy OK
Track 9
Filename C:\CD_buffer\Miguel 'Angб' Dнaz - 2005 - Echu Mingua [FLAC]\09- Jerryґs Tune.wav
Pre-gap length 0:00:00.88
Peak level 100.0 %
Track quality 100.0 %
Test CRC 8E4E07AF
Copy CRC 8E4E07AF
Accurately ripped (confidence 5) [88382A4C]
Copy OK
Track 10
Filename C:\CD_buffer\Miguel 'Angб' Dнaz - 2005 - Echu Mingua [FLAC]\10- Oda Maritima.wav
Peak level 94.8 %
Track quality 100.0 %
Test CRC 9E6F6D0B
Copy CRC 9E6F6D0B
Accurately ripped (confidence 5) [4BFBD97B]
Copy OK
Track 11
Filename C:\CD_buffer\Miguel 'Angб' Dнaz - 2005 - Echu Mingua [FLAC]\11- Freeform.wav
Peak level 100.0 %
Track quality 100.0 %
Test CRC 2B2DC14E
Copy CRC 2B2DC14E
Accurately ripped (confidence 5) [5B82D500]
Copy OK
Track 12
Filename C:\CD_buffer\Miguel 'Angб' Dнaz - 2005 - Echu Mingua [FLAC]\12- Conga Carnaval.wav
Peak level 100.0 %
Track quality 100.0 %
Test CRC 9F3AE5E3
Copy CRC 9F3AE5E3
Accurately ripped (confidence 5) [A7074808]
Copy OK
Track 13
Filename C:\CD_buffer\Miguel 'Angб' Dнaz - 2005 - Echu Mingua [FLAC]\13- Closing.wav
Pre-gap length 0:00:04.73
Peak level 77.0 %
Track quality 99.9 %
Test CRC 111ECE4D
Copy CRC 111ECE4D
Accurately ripped (confidence 5) [291F6775]
Copy OK
All tracks accurately ripped
No errors occurred
End of status report
 
Содержание индексной карты (.CUE)
REM GENRE "Latin Jazz"
REM DATE 2005
REM DISCID A50AE50D
REM COMMENT "ExactAudioCopy v0.99pb4"
PERFORMER "Miguel 'Anga' Diaz"
TITLE "Echu Mingua"
FILE "01 - San Juan y Martinez.flac" WAVE
TRACK 01 AUDIO
TITLE "San Juan y Martinez"
PERFORMER "Miguel 'Anga' Diaz"
INDEX 01 00:00:00
FILE "02 - Rezos.flac" WAVE
TRACK 02 AUDIO
TITLE "Rezos"
PERFORMER "Miguel 'Anga' Diaz"
INDEX 01 00:00:00
FILE "03 - Pueblo Nuevo.flac" WAVE
TRACK 03 AUDIO
TITLE "Pueblo Nuevo"
PERFORMER "Miguel 'Anga' Diaz"
INDEX 01 00:00:00
FILE "04 - Tume Tume.flac" WAVE
TRACK 04 AUDIO
TITLE "Tume Tume"
PERFORMER "Miguel 'Anga' Diaz"
INDEX 01 00:00:00
FILE "05 - A Love Supreme.flac" WAVE
TRACK 05 AUDIO
TITLE "A Love Supreme"
PERFORMER "Miguel 'Anga' Diaz"
INDEX 01 00:00:00
FILE "06 - Gandinga mondongo sandunga.flac" WAVE
TRACK 06 AUDIO
TITLE "Gandinga mondongo sandunga"
PERFORMER "Miguel 'Anga' Diaz"
INDEX 01 00:00:00
FILE "07 - Dracula Simon.flac" WAVE
TRACK 07 AUDIO
TITLE "Dracula Simon"
PERFORMER "Miguel 'Anga' Diaz"
INDEX 01 00:00:00
FILE "08 - Round Midnight.flac" WAVE
TRACK 08 AUDIO
TITLE "Round Midnight"
PERFORMER "Miguel 'Anga' Diaz"
INDEX 01 00:00:00
TRACK 09 AUDIO
TITLE "Jerry's Tune"
PERFORMER "Miguel 'Anga' Diaz"
INDEX 00 02:06:70
FILE "09 - Jerry's Tune.flac" WAVE
INDEX 01 00:00:00
FILE "10 - Oda Maritima.flac" WAVE
TRACK 10 AUDIO
TITLE "Oda Maritima"
PERFORMER "Miguel 'Anga' Diaz"
INDEX 01 00:00:00
FILE "11 - Freeform.flac" WAVE
TRACK 11 AUDIO
TITLE "Freeform"
PERFORMER "Miguel 'Anga' Diaz"
INDEX 01 00:00:00
FILE "12 - Conga Carnaval.flac" WAVE
TRACK 12 AUDIO
TITLE "Conga Carnaval"
PERFORMER "Miguel 'Anga' Diaz"
INDEX 01 00:00:00
TRACK 13 AUDIO
TITLE "Closing"
PERFORMER "Miguel 'Anga' Diaz"
INDEX 00 05:20:24
FILE "13 - Closing.flac" WAVE
INDEX 01 00:00:00
 
Состав
Angá Diaz - percussion (1, 2), congas (1-13), timbales (1-3, 11), backing vocals (2), guiro (3), cajones (9)
Chucho Valdés - piano
Enrique Pla - drums
Roberto Fonseca - piano (2, 5, 10)
Orlando “Cachaíto” López - bass (2-8, 10, 12), backing vocals (2)
El Indio - vocals (1, 2, 12)
Baba Sissoko - tamani (1, 2, 4, 5, 11, 13), n’goni (3, 4), vocals (4, 5)
Joel Hierrezuelo Balart - vocals (2), timbales (5), percussion (12, 13), coro (12, 13)
Carlos Alfonso - vocals (2)
Eliane Castillo - vocals (2), coro (5, 12, 13)
Ele Valdés, Arlety Valdés, Melvis Estevez, Yudelkis Lafuente, vocals (2), coro (5, 13)
Dee Nasty - turntables (2-6, 10-12)
“Goyo” Gregorio H. Rios - drums (2, 4, 5), solo vocals (2), clave (2), shekere (4), vocals (5), percussion (13), coro (13)
Marcos H. Díaz Scull, batá (2, 4), cajon (2), congas (2), shekere (4), coro (13), percussion (13)
Maximino Duquesne Martínez, bata (2, 5), cajon (2), congas (2), coro (13), percussion (13)
Rubén González, piano solo; Rubencito González, piano; Manuel “Guajiro” Mirabal, trumpet (3)
Lázaro Dayán Soria - shekere (4), batá (4), coro (13), percussion (13)
Malik Mezzadri, flute (4, 7)
Yosvani Díaz Herrera - drums (5)
Yauré Muñiz - trumpet (5, 6, 12)
Alfred Thompson - tenor saxophone (5)
Ariel Sardvy, Humberto Legat - violins; Roberto Herrera Diaz, Enrique Navarro Galces, Roy Avila, Arelis Zaldivar, cellos (5)
Gerardo Garcia, Javier Filiu, Silvio Duquesne, Rogelio Martinez, Hugo Cruz José Maron, Angel Zaldivar - violas
Roberto Herrera Diaz, Enrique Navarro Galces, Roy Avila, Arelis Zaldivar - cellos (5)
David Alfaro, piano; Amadito Valdés, timbales; Carlos González, bongos (6)
Pierre Blanchard, violin; Alfonso Pacin, viola; Jean François Ott, cello (8, 10)
Claire Merlet, violin; Claude Mouton, bass; Yinka Oyelwole, spoken word (10)
Pablo Nemirovsky - bandoneon
Simon Burwell - bass
Malik Mezzadri - flute (11)
Jorge Chicoy, guitar; Robam Filio, alto saxophone; Irving Acao, tenor saxophone; Rafael “Jimmy” Jenks, tenor saxophone
Basilio Marquéz - trumpet (12)
Julio Padrón - trumpet (12), coro (12, 13)
03:02
407
Нет комментариев. Ваш будет первым!