Поиск

(Tzadik, Klezmer Jazz, Fusion) [CD] Paul Shapiro (feat. Marc Ribot) - Shofarot Verses - 2014, FLAC (tracks+.cue), lossless

(Tzadik, Klezmer Jazz, Fusion) [CD] Paul Shapiro (feat. Marc Ribot) - Shofarot Verses - 2014, FLAC (tracks+.cue), lossless
Треклист:
Paul Shapiro
Shofarot Verses Жанр: Klezmer Jazz, Fusion
Страна-производитель диска: USA
Год издания: 2014
Издатель (лейбл): Tzadik
Номер по каталогу: 8185
Аудиокодек: FLAC (*.flac)
Тип рипа: tracks+.cue
Битрейт аудио: lossless
Продолжительность: 49:14
Источник (релизер): спасибо Otingocni
Наличие сканов в содержимом раздачи: нет
Треклист:
1. Hashivenu
2. Get Me to the Shul on Time
3. Surfin’ Salami
4. Search Your Soul
5. Halil
6. Ashamnu
7. Daven Dance
8. In Phrygia
9. With Reed and Skins
 
Лог создания рипа
Exact Audio Copy V1.0 beta 4 from 7. December 2014
EAC extraction logfile from 9. February 2015, 10:03
Paul Shapiro / Shofarot Verses
Used drive : hp DVD-RAM GH80N Adapter: 1 ID: 0
Read mode : Secure
Utilize accurate stream : Yes
Defeat audio cache : Yes
Make use of C2 pointers : No
Read offset correction : 667
Overread into Lead-In and Lead-Out : No
Fill up missing offset samples with silence : Yes
Delete leading and trailing silent blocks : No
Null samples used in CRC calculations : Yes
Used interface : Native Win32 interface for Win NT & 2000
Gap handling : Appended to previous track
Used output format : User Defined Encoder
Selected bitrate : 1024 kBit/s
Quality : High
Add ID3 tag : No
Command line compressor : C:\Program Files (x86)\Exact Audio Copy\Flac\flac.exe
Additional command line options : -8 -V -T "ARTIST=%artist%" -T "TITLE=%title%" -T "ALBUM=%albumtitle%" -T "DATE=%year%" -T "TRACKNUMBER=%tracknr%" -T "GENRE=%genre%" -T "PERFORMER=%albuminterpret%" -T "COMPOSER=%composer%" %haslyrics%--tag-from-file=LYRICS="%lyricsfile%"%haslyrics% -T "ALBUMARTIST=%albumartist%" -T "DISCNUMBER=%cdnumber%" -T "TOTALDISCS=%totalcds%" -T "TOTALTRACKS=%numtracks%" -T "COMMENT=%comment%" %source% -o %dest%
TOC of the extracted CD
Track | Start | Length | Start sector | End sector
---------------------------------------------------------
1 | 0:00.00 | 5:14.61 | 0 | 23610
2 | 5:14.61 | 3:47.64 | 23611 | 40699
3 | 9:02.50 | 4:39.11 | 40700 | 61635
4 | 13:41.61 | 5:08.36 | 61636 | 84771
5 | 18:50.22 | 5:45.38 | 84772 | 110684
6 | 24:35.60 | 4:31.29 | 110685 | 131038
7 | 29:07.14 | 5:20.70 | 131039 | 155108
8 | 34:28.09 | 7:58.27 | 155109 | 190985
9 | 42:26.36 | 6:47.52 | 190986 | 221562
Track 1
Filename D:\Music\CD Rips\Paul Shapiro - Shofarot Verses (2014) - FLAC\01. Hashivenu.wav
Pre-gap length 0:00:02.00
Peak level 86.9 %
Extraction speed 2.0 X
Track quality 100.0 %
Test CRC A7A45240
Copy CRC A7A45240
Track not present in AccurateRip database
Copy OK
Track 2
Filename D:\Music\CD Rips\Paul Shapiro - Shofarot Verses (2014) - FLAC\02. Get Me to the Shul on Time.wav
Peak level 90.7 %
Extraction speed 2.2 X
Track quality 100.0 %
Test CRC 2BF5BFC3
Copy CRC 2BF5BFC3
Track not present in AccurateRip database
Copy OK
Track 3
Filename D:\Music\CD Rips\Paul Shapiro - Shofarot Verses (2014) - FLAC\03. Surfin' Salami.wav
Peak level 91.5 %
Extraction speed 2.4 X
Track quality 100.0 %
Test CRC 3B9D6E72
Copy CRC 3B9D6E72
Track not present in AccurateRip database
Copy OK
Track 4
Filename D:\Music\CD Rips\Paul Shapiro - Shofarot Verses (2014) - FLAC\04. Search Your Soul.wav
Peak level 92.6 %
Extraction speed 2.7 X
Track quality 100.0 %
Test CRC DFC3D3F2
Copy CRC DFC3D3F2
Track not present in AccurateRip database
Copy OK
Track 5
Filename D:\Music\CD Rips\Paul Shapiro - Shofarot Verses (2014) - FLAC\05. Halil.wav
Peak level 91.6 %
Extraction speed 2.9 X
Track quality 100.0 %
Test CRC C8C1544B
Copy CRC C8C1544B
Track not present in AccurateRip database
Copy OK
Track 6
Filename D:\Music\CD Rips\Paul Shapiro - Shofarot Verses (2014) - FLAC\06. Ashamnu.wav
Peak level 88.8 %
Extraction speed 3.1 X
Track quality 100.0 %
Test CRC 43D02DC9
Copy CRC 43D02DC9
Track not present in AccurateRip database
Copy OK
Track 7
Filename D:\Music\CD Rips\Paul Shapiro - Shofarot Verses (2014) - FLAC\07. Daven Dance.wav
Peak level 90.6 %
Extraction speed 3.3 X
Track quality 100.0 %
Test CRC FD58877D
Copy CRC FD58877D
Track not present in AccurateRip database
Copy OK
Track 8
Filename D:\Music\CD Rips\Paul Shapiro - Shofarot Verses (2014) - FLAC\08. In Phrygia.wav
Peak level 91.4 %
Extraction speed 3.7 X
Track quality 100.0 %
Test CRC 1A4E5B86
Copy CRC 1A4E5B86
Track not present in AccurateRip database
Copy OK
Track 9
Filename D:\Music\CD Rips\Paul Shapiro - Shofarot Verses (2014) - FLAC\09. With Reed and Skins.wav
Peak level 90.5 %
Extraction speed 3.6 X
Track quality 99.9 %
Test CRC 9336E542
Copy CRC 9336E542
Track not present in AccurateRip database
Copy OK
None of the tracks are present in the AccurateRip database
No errors occurred
End of status report
---- CUETools DB Plugin V2.1.4
[CTDB TOCID: .tFOLElkGYxuOb4qjRSXwPeg5FM-] disk not present in database
Submit result: .tFOLElkGYxuOb4qjRSXwPeg5FM- has been uploaded
==== Log checksum 037A036C9A6B48626D3913E9B5152B7076C69A90EBEF15D50C9B209F9A79127A ====
 
Содержание индексной карты (.CUE)
EM GENRE Jazz
REM DATE 2014
REM DISCID 710B8A09
REM COMMENT "ExactAudioCopy v1.0b4"
PERFORMER "Paul Shapiro"
TITLE "Shofarot Verses"
FILE "01. Hashivenu.wav" WAVE
TRACK 01 AUDIO
TITLE "Hashivenu"
PERFORMER "Paul Shapiro"
FLAGS DCP
INDEX 01 00:00:00
FILE "02. Get Me to the Shul on Time.wav" WAVE
TRACK 02 AUDIO
TITLE "Get Me to the Shul on Time"
PERFORMER "Paul Shapiro"
FLAGS DCP
INDEX 01 00:00:00
FILE "03. Surfin' Salami.wav" WAVE
TRACK 03 AUDIO
TITLE "Surfin' Salami"
PERFORMER "Paul Shapiro"
FLAGS DCP
INDEX 01 00:00:00
FILE "04. Search Your Soul.wav" WAVE
TRACK 04 AUDIO
TITLE "Search Your Soul"
PERFORMER "Paul Shapiro"
FLAGS DCP
INDEX 01 00:00:00
FILE "05. Halil.wav" WAVE
TRACK 05 AUDIO
TITLE "Halil"
PERFORMER "Paul Shapiro"
FLAGS DCP
INDEX 01 00:00:00
FILE "06. Ashamnu.wav" WAVE
TRACK 06 AUDIO
TITLE "Ashamnu"
PERFORMER "Paul Shapiro"
FLAGS DCP
INDEX 01 00:00:00
FILE "07. Daven Dance.wav" WAVE
TRACK 07 AUDIO
TITLE "Daven Dance"
PERFORMER "Paul Shapiro"
FLAGS DCP
INDEX 01 00:00:00
FILE "08. In Phrygia.wav" WAVE
TRACK 08 AUDIO
TITLE "In Phrygia"
PERFORMER "Paul Shapiro"
FLAGS DCP
INDEX 01 00:00:00
FILE "09. With Reed and Skins.wav" WAVE
TRACK 09 AUDIO
TITLE "With Reed and Skins"
PERFORMER "Paul Shapiro"
FLAGS DCP
INDEX 01 00:00:00
 
Об альбоме
Saxophonist Paul Shapiro is one of the few who succeeded in blending organic soul and R&B with the Jewish tradition—the musical one and the liturgical texts—in a highly original, convincing manner. His fourth album for John Zorn's Tzadik label Radical Jewish Culture series enriches his unique and personal art.
Shofarot Verses is part of the service recited on the Jewish New Year, referring to the biblical story of a conversation between "the eternal" and Moses, when "the voice of the eternal and the sound of the Shofar became one." Shapiro is backed by his touring quartet, comprised of drummer Tony Lewis, who has played on each of Shapiro's albums, guitarist Marc Ribot, from many of Zorn's Masada-related projects, and double bassist Brad Jones.
Despite dramatic and reverential framing, as well his contemplative solo alto sax on "Hashivenu" and the quartet's bluesy "Ashamnu," both based on a melody taken from Yom Kippur (day of atonement) services, Shapiro's musical universe is open, passionate and joyful. Shapiro knows how to spice his catchy arrangements of Jewish modes with a sharp sense of humor. Together with Ribot, the two set a steamy, soulful atmosphere that enjoys the infectious, driving rhythm section of Lewis and Jones. Ribot turns out to be a perfect partner. He brilliantly expands the music with wild, seductive surf-rock meets Cuban and Balkan-tinged solos, and challenges Shapiro on intense yet playful duels, and stressing the ecstatic emotional catharsis.
The last piece, "With Reed and Skins," is an exception. This fascinating duet with percussionist Adam Rudolph is inspired by a morning in Sinai desert. The two form a deep, hypnotic melody that adds tribal Middle-Eastern scales to Shapiro's musical world.
Shapiro's best and most personal album so far, and one of the best in the RJC series.
4/5 stars
(Eyal Hareuveni, AllAboutJazz)
 
Состав
Paul Shapiro - tenor sax, alto sax, soprano sax, shofar
Marc Ribot - guitar
Brad Jones - acoustic bass, vocals (7)
Tony Lewis - drums
Adam Rudolph - frame drum, udu drum, shakers, bell
Замечательный альбом!
17:41
295
Нет комментариев. Ваш будет первым!